<?xml version="1.0" standalone="no"?>
<!DOCTYPE svg PUBLIC "-//W3C//DTD SVG 1.1//EN" "http://www.w3.org/Graphics/SVG/1.1/DTD/svg11.dtd" >
<svg xmlns="http://www.w3.org/2000/svg">
<metadata>Generated by IcoMoon</metadata>
<defs>
<font id="icomoon" horiz-adv-x="1024">
<font-face units-per-em="1024" ascent="960" descent="-64" />
<missing-glyph horiz-adv-x="1024" />
<glyph unicode="&#x20;" horiz-adv-x="512" d="" />
<glyph unicode="&#xe900;" glyph-name="refresh" d="M131.612 504.145c30.897 209.964 226.152 355.126 436.115 324.229 71.637-10.541 138.833-41.107 193.856-88.177l-49.532-49.531c-16.602-16.605-16.597-43.527 0.013-60.128 7.97-7.968 18.778-12.446 30.050-12.448h194.982c23.479 0 42.513 19.034 42.513 42.516v194.982c-0.004 23.481-19.042 42.512-42.526 42.508-11.268-0.002-22.080-4.48-30.050-12.448l-55.275-55.271c-210.778 187.887-533.958 169.333-721.845-41.444-66.563-74.671-109.759-167.228-124.236-266.207-5.708-35.089 18.11-68.164 53.198-73.873 3.161-0.512 6.353-0.789 9.556-0.828 32.103 0.346 59.050 24.282 63.18 56.119zM955.341 448.030c-32.102-0.346-59.051-24.282-63.181-56.119-30.895-209.963-226.15-355.127-436.113-324.233-71.636 10.543-138.835 41.109-193.857 88.179l49.531 49.532c16.601 16.606 16.597 43.524-0.010 60.126-7.97 7.97-18.78 12.446-30.050 12.45h-194.978c-23.481 0-42.516-19.038-42.516-42.517v-194.982c0.006-23.479 19.045-42.513 42.526-42.509 11.27 0.004 22.080 4.48 30.050 12.45l55.271 55.27c210.727-187.908 533.885-169.408 721.793 41.318 66.598 74.688 109.815 167.275 124.288 266.291 5.73 35.085-18.065 68.173-53.15 73.907-3.174 0.521-6.387 0.798-9.604 0.836z" />
<glyph unicode="&#xe901;" glyph-name="deposit" d="M767.902 448c0-23.552-19.112-42.668-42.664-42.668s-42.668 19.116-42.668 42.668c0 23.552 19.116 42.668 42.668 42.668s42.664-19.116 42.664-42.668zM298.57 746.667c23.552 0 42.667 19.072 42.667 42.666 0 47.062 38.272 85.334 85.333 85.334 47.063 0 85.332-38.272 85.332-85.334 0-23.594 19.116-42.666 42.668-42.666s42.668 19.072 42.668 42.666c0 94.123-76.544 170.667-170.669 170.667-94.122 0-170.666-76.544-170.666-170.667 0-23.594 19.114-42.666 42.666-42.666zM1023.902 405.332v-85.332c0-47.188-31.912-75.906-66.9-83.372-28.202-70.568-79.872-130.174-146.432-168.704v-3.924c0-70.572-57.428-128-128-128-55.636 0-103.084 35.668-120.706 85.332h-99.966c-17.621-49.664-65.066-85.332-120.704-85.332-70.57 0-128 57.428-128 128v3.37c-112.426 64.81-178.432 186.754-169.941 317.91 2.688 41.728 13.227 81.366 30.080 117.589-43.392 20.523-73.515 64.683-73.515 115.798 0 70.57 57.429 128 128 128 23.552 0 42.667-19.072 42.667-42.667s-19.115-42.667-42.667-42.667c-23.552 0-42.666-19.114-42.666-42.666 0-20.95 15.189-38.4 35.114-41.984 64.896 77.781 164.395 127.317 274.902 127.317h228.821c31.274 63.061 89.684 107.179 167.554 125.696 25.214 5.931 51.326 0.128 71.722-15.957 20.694-16.384 32.596-40.875 32.596-67.243v-158.507c25.94-29.482 46.676-63.189 61.1-99.285 35.030-7.466 66.942-36.18 66.942-83.372zM938.57 405.332h-12.544c-18.86 0-35.5 12.418-40.876 30.506-11.688 39.256-33.28 75.778-62.422 105.688-7.806 7.979-12.158 18.688-12.158 29.782v175.189c-41.602-9.899-96.642-35.413-117.932-99.627-6.014-18.048-23.594-30.464-42.24-29.184-2.9 0.128-255.145 0.939-255.145 0.939-140.928 0-258.133-104.917-266.795-238.892-6.826-105.342 50.39-202.752 145.792-248.106 14.891-7.084 24.32-22.1 24.32-38.526v-29.142c0-23.552 19.158-42.668 42.667-42.668s42.667 19.116 42.667 42.668c0 23.552 19.114 42.668 42.666 42.668h170.669c23.552 0 42.664-19.074 42.664-42.668s19.158-42.668 42.668-42.668c23.51 0 42.668 19.116 42.668 42.668v29.612c0 16.426 9.425 31.4 24.273 38.484 65.792 31.4 115.2 88.79 135.638 157.352 5.376 18.092 22.016 30.511 40.876 30.511h12.544v85.416z" />
<glyph unicode="&#xe902;" glyph-name="withdraw" d="M853.332 960h-682.665c-94.294 0-170.667-76.8-170.667-171.093v-42.667c0-93.867 76.373-170.667 170.667-170.667v-426.665c0-117.76 95.573-213.336 213.333-213.336h256c117.76 0 213.332 95.576 213.332 213.336v426.665c94.296 0 170.668 76.374 170.668 170.667v42.667c0 94.293-76.372 171.093-170.668 171.093zM938.668 746.667c0-46.934-38.4-85.334-85.336-85.334v85.334c0 23.466-19.2 42.666-42.664 42.666-23.468 0-42.668-19.2-42.668-42.666v-597.335c0-70.4-57.6-128-128-128h-256c-70.4 0-128 57.6-128 128v596.908c0 23.467-19.2 42.667-42.667 42.667s-42.666-19.2-42.666-42.667v-85.333c-46.934 0-85.334 38.4-85.334 85.333v42.667c0 46.933 38.4 85.333 85.334 85.333h682.665c46.936 0 85.336-38.4 85.336-85.333v-42.24zM682.668 213.332c0-35.412-28.588-64-64-64-35.416 0-64 28.588-64 64 0 35.416 28.584 64 64 64 35.412 0 64-28.584 64-64zM469.332 213.332c0-35.412-28.585-64-63.999-64s-64 28.588-64 64c0 35.416 28.587 64 64 64s63.999-28.584 63.999-64zM384 490.668c0-70.828 57.173-128 128-128s128 57.172 128 128c0 70.825-57.172 127.999-128 127.999s-128-57.174-128-127.999z" />
<glyph unicode="&#xe903;" glyph-name="chevron-left-sm" d="M608.991 116.706c-14.787 0-27.262 5.084-37.428 15.246l-276.772 274.001c-12.937 12.476-18.944 25.875-18.944 42.047s6.007 30.034 18.482 42.047l277.234 273.999c10.165 10.165 22.641 15.248 37.428 15.248 29.57 0 53.597-23.565 53.597-53.137 0-14.786-6.005-28.185-16.637-39.275l-243.039-239.345 243.039-238.883c10.632-10.626 16.637-24.028 16.637-38.816 0-29.57-24.028-53.134-53.597-53.134z" />
<glyph unicode="&#xe904;" glyph-name="chevron-right-sm" d="M354.775 116.706c14.786 0 27.261 5.084 37.427 15.246l276.772 274.001c12.939 12.476 18.944 25.875 18.944 42.047s-6.005 30.034-18.48 42.047l-277.235 273.999c-10.165 10.165-22.641 15.248-37.427 15.248-29.572 0-53.599-23.565-53.599-53.137 0-14.786 6.007-28.185 16.634-39.275l243.042-239.345-243.042-238.883c-10.627-10.626-16.634-24.028-16.634-38.816 0-29.57 24.027-53.134 53.599-53.134z" />
<glyph unicode="&#xe905;" glyph-name="arrow-up-fill" d="M512-64c282.769 0 512 229.231 512 512s-229.231 512-512 512c-282.77 0-512-229.23-512-512s229.23-512 512-512zM609.476 707.62l141.231-141.231c5.483-5.487 9.835-12.001 12.8-19.17 2.97-7.169 4.493-14.851 4.493-22.612 0-7.757-1.532-15.441-4.501-22.605-2.974-7.168-7.326-13.683-12.813-19.166-5.487-5.487-12.002-9.835-19.17-12.804-7.168-2.965-14.852-4.493-22.609-4.489-7.761 0-15.441 1.532-22.609 4.501s-13.679 7.322-19.166 12.813l-96.055 96.055v-343.018c0-15.667-6.225-30.694-17.301-41.775-11.081-11.076-26.108-17.301-41.775-17.301s-30.694 6.225-41.775 17.301c-11.076 11.081-17.301 26.108-17.301 41.775v343.018l-96.057-96.055c-11.077-11.085-26.103-17.314-41.772-17.314-15.669-0.004-30.698 6.217-41.78 17.293s-17.31 26.103-17.314 41.771c-0.004 15.671 6.217 30.7 17.295 41.782l141.231 141.231c26.264 25.063 61.17 39.046 97.475 39.046s71.211-13.984 97.476-39.046z" />
<glyph unicode="&#xe906;" glyph-name="chart-up" d="M960 64h-725.333c-28.29 0-55.421 11.238-75.425 31.241-20.004 20.006-31.242 47.138-31.242 75.426v725.333c0 16.974-6.743 33.253-18.745 45.255s-28.281 18.745-45.255 18.745c-16.974 0-33.253-6.743-45.255-18.745s-18.745-28.281-18.745-45.255v-725.333c0.068-62.217 24.813-121.865 68.807-165.858s103.643-68.74 165.859-68.809h725.333c16.973 0 33.254 6.741 45.257 18.743s18.743 28.284 18.743 45.257c0 16.973-6.741 33.254-18.743 45.257s-28.284 18.743-45.257 18.743zM960.073 790.354h-131.669c-8.439-0.002-16.687-2.505-23.701-7.194s-12.48-11.351-15.71-19.147c-3.23-7.795-4.075-16.372-2.428-24.648 1.643-8.275 5.709-15.877 11.674-21.844l31.275-31.232-153.045-152.961c-1.984-1.984-4.339-3.563-6.929-4.638s-5.372-1.63-8.175-1.63c-2.807 0-5.585 0.555-8.179 1.63-2.59 1.075-4.945 2.654-6.925 4.638l-7.253 7.255c-28.446 27.171-66.266 42.333-105.6 42.333-39.339 0-77.158-15.162-105.6-42.333l-174.934-174.935c-6.112-5.901-10.988-12.966-14.342-20.774s-5.12-16.205-5.193-24.704c-0.074-8.495 1.545-16.926 4.763-24.789 3.218-7.868 7.97-15.010 13.979-21.022 6.009-6.007 13.155-10.761 21.020-13.978s16.293-4.838 24.791-4.766c8.498 0.077 16.896 1.843 24.704 5.197s14.87 8.23 20.774 14.34l174.934 174.933c1.98 1.988 4.335 3.563 6.925 4.638 2.594 1.075 5.372 1.63 8.179 1.63 2.803 0 5.585-0.555 8.175-1.63s4.945-2.65 6.929-4.638l7.253-7.253c28.45-27.153 66.27-42.3 105.6-42.3 39.326 0 77.146 15.147 105.6 42.3l153.003 152.961 31.232-31.274c5.965-5.98 13.568-10.055 21.85-11.709 8.286-1.654 16.87-0.812 24.674 2.418s14.473 8.704 19.166 15.728c4.689 7.024 7.189 15.282 7.185 23.728v131.67c0 16.974-6.746 33.252-18.748 45.255s-28.279 18.745-45.252 18.745z" />
<glyph unicode="&#xe907;" glyph-name="chart-down" d="M951.151 418.138l-31.232-31.232-153.003 153.173c-28.446 27.127-66.249 42.26-105.557 42.26s-77.107-15.133-105.557-42.26l-7.424-7.381c-3.998-3.998-9.425-6.246-15.083-6.246s-11.081 2.249-15.083 6.246l-174.932 174.933c-12.116 11.444-28.217 17.71-44.881 17.467s-32.576-6.978-44.352-18.77c-11.776-11.793-18.488-27.714-18.708-44.378s6.069-32.757 17.53-44.857l174.932-174.933c28.446-27.136 66.244-42.278 105.557-42.278s77.116 15.142 105.557 42.278l7.424 7.381c4.002 3.998 9.425 6.246 15.083 6.246s11.085-2.249 15.083-6.246l152.96-152.96-31.275-31.275c-5.965-5.969-10.027-13.568-11.674-21.845-1.643-8.273-0.798-16.853 2.428-24.649 3.23-7.795 8.7-14.455 15.714-19.145s15.262-7.194 23.697-7.194h131.627c16.973 0 33.254 6.741 45.257 18.743s18.743 28.284 18.743 45.257v131.797c-0.060 8.41-2.607 16.619-7.317 23.586-4.71 6.972-11.375 12.39-19.157 15.582-7.787 3.191-16.337 4.011-24.585 2.359-8.247-1.655-15.825-5.713-21.773-11.661zM960 64h-725.333c-28.29 0-55.421 11.238-75.425 31.241-20.004 20.006-31.242 47.138-31.242 75.426v725.333c0 16.974-6.743 33.253-18.745 45.255s-28.281 18.745-45.255 18.745c-16.974 0-33.253-6.743-45.255-18.745s-18.745-28.281-18.745-45.255v-725.333c0.068-62.217 24.813-121.865 68.807-165.858s103.643-68.74 165.859-68.809h725.333c16.973 0 33.254 6.741 45.257 18.743s18.743 28.284 18.743 45.257c0 16.973-6.741 33.254-18.743 45.257s-28.284 18.743-45.257 18.743z" />
<glyph unicode="&#xe908;" glyph-name="download" d="M377.676 204.8c74.979-74.982 196.549-74.982 271.532 0v0l137.045 137.045c25.425 24.555 26.129 65.071 1.574 90.496-24.559 25.425-65.071 26.129-90.496 1.574-0.533-0.516-1.058-1.041-1.574-1.574l-118.741-118.699-0.981 582.357c0 35.346-28.655 64-64 64s-64-28.654-64-64l0.896-581.419-117.802 117.803c-25.424 24.555-65.94 23.851-90.496-1.57-23.954-24.802-23.954-64.124 0-88.926l137.044-137.088zM960 341.333c-35.345 0-64-28.655-64-64v-195.883c-0.026-9.626-7.821-17.429-17.451-17.451h-733.1c-9.628 0.026-17.428 7.825-17.45 17.451v195.883c0 35.345-28.654 64-64 64s-64-28.655-64-64v-195.883c0.094-80.29 65.16-145.357 145.45-145.451h733.1c80.29 0.094 145.353 65.161 145.451 145.451v195.883c0 35.345-28.655 64-64 64z" />
<glyph unicode="&#xe909;" glyph-name="sort-az" horiz-adv-x="1067" d="M279.761 931.15c-4.302 8.668-10.918 15.959-19.108 21.055s-17.629 7.795-27.258 7.795c-9.629 0-19.068-2.699-27.258-7.795s-14.807-12.387-19.108-21.055l-181.388-365.013c-3.95-7.946-5.817-16.775-5.423-25.651s3.035-17.504 7.673-25.065 11.119-13.803 18.827-18.133c7.709-4.335 16.39-6.613 25.22-6.622 9.626-0.004 19.063 2.692 27.252 7.782s14.808 12.373 19.114 21.035l20.281 40.709h229.62l20.212-40.709c4.301-8.649 10.909-15.927 19.085-21.018s17.598-7.791 27.212-7.799c8.836-0.004 17.525 2.27 25.244 6.596s14.208 10.569 18.854 18.129c4.646 7.565 7.292 16.196 7.689 25.077s-1.468 17.717-5.419 25.668l-181.321 365.013zM170.41 664.482l62.985 126.746 62.985-126.746h-125.969zM406.664 354.069c-13.647 31.77-42.378 51.264-75.419 51.264h-223.383c-29.449 0-53.871-24.55-53.871-54.153 0-29.606 24.421-54.157 53.871-54.157h171.667l-203.271-213.005c-24.422-25.993-30.886-63.539-17.239-96.755 13.647-31.77 42.378-51.264 75.418-51.264h224.82c29.449 0 53.871 24.55 53.871 54.153 0 29.606-24.422 54.157-53.871 54.157h-171.668l202.553 211.558c24.422 25.997 31.604 64.265 17.239 97.476l-0.718 0.725zM893.547 174.345h88.444c11.238 0 22.016-4.493 29.961-12.489 16.563-16.661 16.567-43.678 0.009-60.343l-152.038-152.998c-16.559-16.657-43.396-16.657-59.951 0l-152.043 152.998c-7.949 8-12.412 18.846-12.416 30.157-0.004 23.565 18.974 42.671 42.394 42.675h88.444v547.33h-88.444c-11.238 0.002-22.020 4.496-29.965 12.492-16.563 16.66-16.567 43.676-0.013 60.34l152.043 153.002c16.555 16.656 43.392 16.656 59.951 0l152.043-153.002c7.949-7.998 12.412-18.846 12.416-30.156 0.004-23.564-18.974-42.67-42.389-42.676h-88.444v-547.33z" />
<glyph unicode="&#xe90a;" glyph-name="sort-za" horiz-adv-x="1067" d="M406.497 908.734c-13.647 31.77-42.378 51.266-75.418 51.266h-223.383c-29.449 0-53.871-24.55-53.871-54.154s24.421-54.154 53.871-54.154h171.668l-203.272-213.005c-24.421-25.994-30.886-63.54-17.239-96.755 13.647-31.771 42.378-51.266 75.419-51.266h224.82c29.449 0 53.871 24.55 53.871 54.154s-24.421 54.154-53.871 54.154h-171.668l202.554 211.561c24.421 25.994 31.604 64.263 17.239 97.477l-0.719 0.722zM279.594 376.482c-4.302 8.67-10.918 15.962-19.108 21.056s-17.629 7.795-27.258 7.795c-9.629 0-19.068-2.701-27.258-7.795s-14.807-12.386-19.108-21.056l-181.388-365.013c-3.95-7.945-5.817-16.772-5.423-25.651 0.394-8.875 3.035-17.502 7.673-25.062s11.119-13.803 18.827-18.133c7.709-4.335 16.39-6.613 25.22-6.622 9.626-0.004 19.063 2.692 27.252 7.782s14.808 12.373 19.114 21.035l20.281 40.708h229.62l20.212-40.708c4.301-8.649 10.909-15.927 19.084-21.018s17.598-7.791 27.212-7.799c8.836-0.004 17.526 2.27 25.244 6.596s14.208 10.569 18.854 18.129c4.646 7.565 7.292 16.196 7.689 25.075 0.397 8.883-1.468 17.719-5.423 25.668l-181.317 365.013zM170.243 109.815l62.985 126.746 62.985-126.746h-125.969zM893.38 174.345h88.439c11.243 0 22.020-4.493 29.965-12.489 16.563-16.661 16.567-43.678 0.009-60.343l-152.038-152.998c-16.559-16.657-43.396-16.657-59.955 0l-152.038 152.998c-7.949 8-12.412 18.846-12.416 30.157-0.004 23.565 18.974 42.671 42.394 42.675h88.444v547.33h-88.444c-11.238 0.002-22.020 4.496-29.965 12.492-16.563 16.66-16.567 43.676-0.013 60.34l152.043 153.002c16.555 16.656 43.392 16.656 59.951 0l152.043-153.002c7.949-7.998 12.412-18.846 12.416-30.156 0.004-23.564-18.974-42.67-42.394-42.676h-88.439v-547.33z" />
<glyph unicode="&#xe90b;" glyph-name="sort" d="M689.997 174.345h-89.003v547.33h89.003c23.565 0.006 42.662 19.112 42.658 42.676 0 11.31-4.497 22.158-12.493 30.156l-153.003 153.002c-16.661 16.656-43.669 16.656-60.331 0l-153.001-153.002c-16.66-16.664-16.656-43.68 0.010-60.34 7.998-7.996 18.846-12.49 30.156-12.492h89.001v-547.33h-89.003c-23.564-0.004-42.662-19.11-42.658-42.675 0.002-11.311 4.496-22.157 12.492-30.157l153.004-152.998c16.661-16.657 43.669-16.657 60.331 0l152.998 152.998c16.661 16.666 16.657 43.682-0.009 60.343-7.996 7.996-18.842 12.489-30.153 12.489z" />
<glyph unicode="&#xe90c;" glyph-name="expand" d="M294.285 8.717l-65.646 65.604 136.020 136.017c6.103 5.897 10.971 12.945 14.32 20.745 3.349 7.795 5.111 16.179 5.185 24.666 0.074 8.482-1.543 16.896-4.756 24.751-3.213 7.851-7.957 14.985-13.957 20.988-6 5.999-13.134 10.743-20.987 13.956s-16.267 4.83-24.751 4.753c-8.485-0.073-16.87-1.835-24.665-5.184s-14.847-8.218-20.742-14.319l-136.020-136.021-65.603 65.647c-5.963 5.961-13.56 10.018-21.83 11.657-8.27 1.643-16.841 0.789-24.627-2.441-7.786-3.234-14.438-8.708-19.112-15.723-4.675-7.019-7.162-15.266-7.147-23.697v-202.944c0-16.222 6.445-31.782 17.917-43.255 11.472-11.469 27.032-17.916 43.256-17.916h202.944c8.431-0.017 16.678 2.47 23.694 7.147s12.489 11.328 15.723 19.11c3.234 7.787 4.084 16.358 2.444 24.631-1.64 8.269-5.698 15.868-11.659 21.828zM729.681 887.286l65.647-65.603-136.021-136.020c-6.101-5.894-10.97-12.945-14.319-20.742s-5.111-16.181-5.184-24.665c-0.077-8.485 1.54-16.899 4.753-24.752s7.957-14.987 13.956-20.987c6.003-6 13.137-10.744 20.988-13.957 7.855-3.213 16.269-4.83 24.751-4.756 8.486 0.074 16.87 1.836 24.666 5.185 7.799 3.349 14.848 8.217 20.745 14.32l136.017 136.020 65.604-65.646c5.961-5.961 13.559-10.019 21.828-11.659 8.273-1.641 16.845-0.79 24.631 2.444 7.782 3.234 14.434 8.706 19.11 15.723s7.164 15.263 7.147 23.695v202.944c0 16.224-6.447 31.783-17.916 43.256-11.473 11.472-27.034 17.917-43.255 17.917h-202.944c-8.431 0.015-16.678-2.472-23.697-7.147-7.014-4.675-12.489-11.326-15.723-19.113-3.23-7.786-4.083-16.357-2.441-24.627 1.638-8.271 5.696-15.868 11.657-21.831z" />
<glyph unicode="&#xe90d;" glyph-name="minimize" d="M89.882 247.479l65.646-65.6-136.020-136.021c-6.103-5.897-10.971-12.945-14.32-20.74s-5.112-16.183-5.185-24.666c-0.074-8.486 1.543-16.9 4.756-24.751 3.213-7.855 7.958-14.989 13.957-20.988s13.134-10.743 20.987-13.956c7.853-3.213 16.267-4.83 24.752-4.757s16.869 1.835 24.665 5.184c7.796 3.349 14.847 8.218 20.742 14.319l136.020 136.021 65.603-65.647c5.963-5.961 13.56-10.018 21.83-11.657 8.271-1.643 16.841-0.789 24.628 2.445s14.438 8.704 19.113 15.723c4.675 7.014 7.162 15.262 7.147 23.693v202.944c0 16.226-6.445 31.782-17.917 43.255s-27.031 17.916-43.255 17.916h-202.944c-8.431 0.017-16.678-2.47-23.695-7.147-7.017-4.672-12.489-11.324-15.723-19.11s-4.085-16.358-2.445-24.627c1.641-8.273 5.698-15.868 11.659-21.833zM934.153 648.516l-65.647 65.603 136.021 136.020c6.101 5.895 10.97 12.945 14.319 20.742s5.111 16.181 5.184 24.665c0.077 8.485-1.54 16.899-4.753 24.752s-7.957 14.987-13.961 20.987c-5.999 6-13.133 10.744-20.983 13.957-7.855 3.213-16.269 4.83-24.755 4.756-8.482-0.074-16.866-1.836-24.661-5.185-7.799-3.349-14.848-8.217-20.745-14.32l-136.017-136.020-65.604 65.646c-5.961 5.961-13.559 10.019-21.828 11.659-8.273 1.64-16.845 0.789-24.631-2.445-7.782-3.234-14.434-8.706-19.11-15.723s-7.164-15.263-7.147-23.695v-202.944c0-16.224 6.443-31.783 17.916-43.255s27.034-17.917 43.255-17.917h202.944c8.431-0.015 16.678 2.472 23.693 7.147 7.019 4.675 12.489 11.326 15.723 19.113s4.087 16.357 2.445 24.628c-1.638 8.27-5.696 15.867-11.657 21.83z" />
<glyph unicode="&#xe90e;" glyph-name="caret-down" d="M463.808 247.040l-306.944 350.848c-36.224 41.28-6.784 106.112 48.192 106.112h613.888c0.016 0 0.036 0 0.055 0 35.346 0 64-28.654 64-64 0-16.19-6.012-30.976-15.924-42.247l0.062 0.071-306.944-350.72c-11.793-13.445-29.007-21.887-48.192-21.887s-36.399 8.442-48.129 21.814l-0.063 0.073z" />
<glyph unicode="&#xe90f;" glyph-name="caret-left" d="M247.040 399.808l350.848-306.944c41.344-36.224 106.112-6.784 106.112 48.192v613.888c0 0.016 0 0.036 0 0.055 0 35.346-28.654 64-64 64-16.19 0-30.976-6.012-42.247-15.924l0.071 0.062-350.72-306.944c-13.445-11.793-21.887-29.007-21.887-48.192s8.442-36.399 21.814-48.129l0.073-0.063z" />
<glyph unicode="&#xe910;" glyph-name="caret-right" d="M776.96 399.808l-350.848-306.944c-41.344-36.224-106.112-6.784-106.112 48.192v613.888c0 0.016 0 0.036 0 0.055 0 35.346 28.654 64 64 64 16.19 0 30.976-6.012 42.247-15.924l-0.071 0.062 350.72-306.944c13.445-11.793 21.887-29.007 21.887-48.192s-8.442-36.399-21.814-48.129l-0.073-0.063z" />
<glyph unicode="&#xe911;" glyph-name="caret-up" d="M463.808 648.96l-306.944-350.784c-36.224-41.408-6.784-106.176 48.192-106.176h613.888c0.016 0 0.036 0 0.055 0 35.346 0 64 28.654 64 64 0 16.19-6.012 30.976-15.924 42.247l0.062-0.071-306.944 350.72c-11.793 13.445-29.007 21.887-48.192 21.887s-36.399-8.442-48.129-21.814l-0.063-0.073z" />
<glyph unicode="&#xe912;" glyph-name="chevron-down" d="M62.123 702.089c-13.653-3.823-23.893-9.694-33.451-19.251-9.83-9.83-15.428-19.934-19.251-34.816-3.14-12.015-3.14-19.388 0-31.403 5.871-22.665-6.417-9.284 184.047-200.021 193.195-193.331 187.324-187.87 220.911-204.527 15.155-7.373 19.115-9.148 27.853-12.151 19.115-6.554 48.196-11.332 68.403-11.332s49.289 4.779 68.403 11.332c8.738 3.004 12.698 4.779 27.853 12.151 18.022 9.011 17.34 8.465 33.178 20.207 10.923 8.055 49.835 46.285 187.733 184.32 191.147 191.42 178.449 177.493 184.047 200.704 3.14 12.561 3.14 16.657 0.41 29.082-6.417 28.535-25.941 48.469-54.613 56.115-10.786 2.867-20.89 2.731-32.631-0.41-20.89-5.598-10.65 3.823-196.608-181.999-94.618-94.481-174.49-173.534-177.493-175.582-23.62-16.247-55.159-16.521-79.872-0.683-2.594 1.775-82.466 80.691-177.493 175.582-186.778 186.641-176.401 177.084-197.291 182.682-11.605 3.14-23.211 3.14-34.133 0z" />
<glyph unicode="&#xe913;" glyph-name="chevron-left" d="M679.936 947.849c-21.982-5.871-9.284 5.734-199.339-184.047-193.331-193.195-187.87-187.324-204.527-220.911-12.834-25.941-16.384-37.137-20.89-65.536-3.277-20.753-3.277-40.687 0-61.44 4.506-27.853 7.919-38.912 20.343-64.853 6.281-12.971 12.834-23.484 24.713-39.185 3.413-4.642 84.651-86.699 180.361-182.272 191.42-191.283 177.493-178.586 200.704-184.183 12.561-3.14 16.657-3.14 29.082-0.41 28.535 6.417 48.469 25.941 56.115 54.613 2.867 10.786 2.731 20.89-0.41 32.631-5.598 20.89 3.823 10.513-182.682 197.291-94.754 95.027-173.807 174.899-175.582 177.493-15.565 24.303-15.565 54.886 0 79.189 1.775 2.594 80.691 82.466 175.582 177.493 186.641 186.778 177.084 176.401 182.682 197.291 4.506 17.067 2.731 31.539-6.144 49.835-5.461 11.469-19.115 25.259-30.174 30.583-10.513 5.188-25.395 9.011-34.133 8.875-3.686 0-10.786-1.229-15.701-2.458z" />
<glyph unicode="&#xe914;" glyph-name="chevron-right" d="M309.248 947.849c-27.853-6.963-46.967-26.078-54.477-54.204-2.867-10.786-2.731-20.89 0.41-32.631 5.598-20.89-3.823-10.513 182.682-197.291 94.754-95.027 173.807-174.899 175.582-177.493 15.838-24.713 15.565-56.252-0.683-79.872-2.048-3.004-81.101-82.876-175.582-177.493-185.822-185.958-176.401-175.718-181.999-196.608-4.506-17.067-2.731-31.539 6.144-49.835 5.461-11.469 19.115-25.259 30.174-30.583 10.103-4.915 25.259-9.011 33.451-9.011 8.055 0 23.211 4.096 33.451 8.875 7.373 3.55 26.351 21.982 182.272 177.766 193.331 193.195 187.87 187.324 204.527 220.911 12.834 25.941 16.384 37.137 20.89 65.536 3.277 20.753 3.277 40.687 0 61.44-4.506 27.853-7.919 38.912-20.343 64.853-6.281 12.971-12.834 23.484-24.713 39.185-3.413 4.642-84.651 86.699-180.361 182.272-191.42 191.283-177.493 178.586-200.704 184.183-12.425 3.14-18.295 3.14-30.72 0z" />
<glyph unicode="&#xe915;" glyph-name="chevron-up" d="M478.549 701.952c-26.624-4.369-38.093-8.055-63.488-20.207-12.971-6.281-23.484-12.834-39.185-24.713-4.642-3.413-86.699-84.651-182.272-180.361-191.283-191.42-178.586-177.493-184.183-200.704-3.14-12.561-3.14-16.657-0.41-29.082 6.417-28.535 25.941-48.469 54.613-56.115 10.786-2.867 20.89-2.731 32.631 0.41 20.89 5.598 10.513-3.823 197.291 182.682 95.027 94.754 174.899 173.807 177.493 175.582 24.303 15.565 54.886 15.565 79.189 0 2.594-1.775 82.466-80.691 177.493-175.582 186.778-186.641 176.401-177.084 197.291-182.682 17.067-4.506 31.539-2.731 49.835 6.144 11.469 5.461 25.259 19.115 30.583 30.174 4.915 10.103 9.011 25.259 9.011 33.451 0 8.055-4.096 23.211-8.875 33.451-3.55 7.373-21.982 26.351-177.766 182.272-193.195 193.331-187.324 187.87-220.911 204.527-25.941 12.834-37.137 16.384-65.536 20.89-20.343 3.14-42.735 3.14-62.805-0.137z" />
<glyph unicode="&#xe916;" glyph-name="copy-fill" d="M511.441 73.962c-160.59 0.183-290.725 130.326-290.909 290.91v374.026c0 8.313 0.54 16.623 1.247 24.602-76.301-32.778-125.798-107.791-125.922-190.835v-415.584c0.136-114.703 93.087-207.653 207.791-207.792h249.351c83.043 0.124 158.057 49.62 190.835 125.923-8.309-0.709-16.29-1.251-24.6-1.251h-207.792zM891.977 810.702l-94.925 98.035c-10.445 10.584-22.704 19.212-36.198 25.477v-153.765h152.108c-5.456 11.071-12.529 21.268-20.985 30.253zM719.285 780.471c0-22.952 18.609-41.558 41.561-41.558h164.82c-3.065 26.984-14.907 52.217-33.704 71.812l-94.917 98.036c-20.765 21.047-48.318 34.062-77.76 36.738v-165.029zM636.183 780.481v166.233h-124.676c-114.703-0.138-207.655-93.090-207.793-207.793v-374.026c0.138-114.703 93.090-207.653 207.793-207.792h207.793c114.704 0.139 207.654 93.089 207.793 207.792v290.91h-166.232c-68.86 0-124.679 55.818-124.679 124.675z" />
<glyph unicode="&#xe917;" glyph-name="thumb-up" d="M508.587 883.883c-30.037-6.144-52.736-16.043-74.581-32.768-29.184-22.357-32.768-27.819-79.701-120.661-23.723-46.763-28.672-55.979-30.891-57.515-0.853-0.683-26.112-1.365-55.808-1.365-47.275 0-56.149-0.341-70.827-3.413-28.843-5.973-40.448-9.728-61.952-20.821-23.893-12.117-39.083-23.211-58.88-43.179-26.624-26.624-41.472-50.176-54.613-86.187-5.12-14.336-6.315-18.944-9.387-36.693-3.072-17.408-3.413-27.307-3.413-142.848 0-130.56 0.171-132.437 7.851-162.645 4.949-18.432 12.629-36.864 22.699-53.76 1.877-3.243 4.096-7.168 4.779-8.533 5.461-11.776 35.84-45.397 53.76-59.051 15.36-11.947 53.419-33.109 59.392-33.109 0.853 0 4.096-1.024 7.168-2.389 8.533-3.584 24.235-7.339 43.179-10.411 15.019-2.219 51.029-2.56 279.893-2.56 156.331 0 266.923 0.683 273.067 1.707 39.424 6.144 51.2 9.728 78.507 23.211 18.091 8.875 18.261 8.875 35.84 21.845 27.136 19.797 53.419 50.859 67.413 79.531 10.923 22.357 15.701 36.523 21.333 62.293 1.536 7.509 3.925 18.261 5.12 23.893s3.413 16.043 4.949 23.040c1.365 6.997 3.755 18.432 5.291 25.259 1.365 6.656 3.755 17.92 5.12 24.747 1.536 6.656 3.925 18.091 5.291 25.088 1.536 6.997 3.755 17.408 4.949 23.040s3.413 16.384 5.12 23.893c1.536 7.509 3.925 18.261 5.12 23.893 12.629 56.149 7.339 106.667-16.555 155.989-26.624 54.784-75.264 97.28-133.632 116.907-28.843 9.728-42.837 11.264-101.205 11.264-43.008 0-53.589 0.512-54.272 2.219-0.512 1.365 0.341 10.24 1.877 19.968 5.291 36.181 1.365 65.877-12.8 96.597-22.016 47.445-64 80.725-116.053 92.331-16.725 3.755-47.957 4.267-63.147 1.195zM551.253 758.443c8.021-2.048 18.091-10.581 22.357-18.944 4.437-8.533 4.608-24.405 1.024-43.52-1.536-7.339-3.925-20.992-5.461-30.379s-3.925-22.869-5.12-29.867c-1.195-6.997-3.584-20.48-5.12-29.867s-3.413-20.821-4.437-25.6c-4.267-22.357-4.779-28.843-3.072-31.061 1.536-1.877 24.405-2.219 121.685-2.219 130.731 0 132.267-0.171 152.917-9.899 26.624-12.629 44.715-33.109 55.125-62.464 4.608-13.312 5.12-47.275 0.853-63.317-1.536-5.632-4.096-16.384-5.632-23.893s-3.925-18.261-5.12-23.893c-1.195-5.632-3.584-16.725-5.12-24.747s-3.925-19.115-5.12-24.747c-2.389-11.093-5.632-26.112-10.24-47.787-1.536-7.509-3.755-18.261-5.12-23.893-1.195-5.632-3.584-16.384-5.12-23.893-8.704-40.448-30.72-66.56-69.12-81.579-9.387-3.584-10.411-3.755-174.933-4.608-90.965-0.512-166.912-0.171-168.448 0.512-2.901 1.195-3.072 13.824-3.072 231.253v229.888l15.872 31.573c8.875 17.408 23.893 46.933 33.621 65.707s19.797 38.4 22.357 43.52c11.435 22.357 29.355 30.208 54.443 23.723zM300.032 339.968l0.341-205.995-3.755-1.365c-2.219-0.683-22.016-0.853-44.032-0.341l-40.107 1.024-13.483 5.803c-34.645 14.677-58.197 44.203-64 80.384-1.195 6.997-1.877 51.541-1.877 120.32 0 123.563 0.171 126.293 12.117 150.357 13.483 27.307 38.229 46.763 68.437 54.272 6.315 1.536 20.992 2.219 47.445 1.877l38.4-0.171 0.512-206.165z" />
<glyph unicode="&#xe918;" glyph-name="affiliate" d="M932.864 186.578c-11.648 50.022-39.859 94.643-80.056 126.607-40.202 31.964-90.025 49.403-141.384 49.48h-135.424v68.951c63.606 15.642 119.286 54.033 156.518 107.926 37.238 53.894 53.443 119.556 45.568 184.585-7.88 65.029-39.296 124.922-88.32 168.366-49.029 43.444-112.266 67.432-177.768 67.432-65.504 0-128.741-23.988-177.766-67.432s-80.443-103.337-88.321-168.366c-7.878-65.029 8.331-130.692 45.564-184.585s92.913-92.284 156.522-107.926v-68.951h-135.424c-51.359-0.077-101.185-17.516-141.384-49.48s-68.412-76.585-80.056-126.607c-26.982-8.105-50.536-24.888-67.008-47.744-16.473-22.861-24.943-50.514-24.099-78.674s10.956-55.26 28.768-77.087c17.812-21.832 42.329-37.171 69.748-43.648s56.21-3.727 81.907 7.823c25.697 11.551 46.865 31.258 60.222 56.064 13.356 24.812 18.154 53.33 13.651 81.142s-18.057 53.361-38.56 72.684c4.968 21.98 17.253 41.62 34.841 55.706s39.438 21.775 61.97 21.821h135.424v-59.735c-24.402-14.085-43.473-35.835-54.256-61.865-10.783-26.035-12.675-54.897-5.382-82.115 7.293-27.213 23.363-51.267 45.717-68.419s49.744-26.45 77.921-26.45c28.177 0 55.569 9.298 77.923 26.45s38.42 41.206 45.716 68.419c7.291 27.218 5.402 56.079-5.381 82.115-10.783 26.030-29.855 47.78-54.257 61.865v59.735h135.424c22.528-0.046 44.38-7.736 61.967-21.821s29.875-33.725 34.842-55.706c-20.5-19.323-34.058-44.872-38.559-72.684-4.506-27.812 0.292-56.33 13.65-81.142 13.358-24.806 34.524-44.513 60.221-56.064s54.487-14.3 81.91-7.823c27.418 6.477 51.937 21.816 69.745 43.648 17.812 21.827 27.924 48.927 28.769 77.087s-7.624 55.813-24.1 78.674c-16.471 22.856-40.023 39.639-67.005 47.744zM371.966 691.923c0 27.696 8.212 54.77 23.599 77.798s37.257 40.976 62.845 51.575c25.587 10.599 53.743 13.372 80.905 7.969 27.167-5.403 52.116-18.74 71.7-38.324s32.922-44.535 38.323-71.698c5.402-27.164 2.632-55.32-7.967-80.907s-28.549-47.458-51.579-62.844c-23.025-15.387-50.099-23.6-77.795-23.6-37.125 0.045-72.716 14.813-98.968 41.064s-41.019 61.843-41.064 98.968z" />
<glyph unicode="&#xe919;" glyph-name="blog" d="M435.284 598.653c60.595 0 117.855-23.348 160.658-66.71 42.808-42.806 66.714-100.066 66.714-160.662 0-20.567 8.335-41.134 23.347-55.593 15.012-14.454 34.468-23.347 55.593-23.347s41.134 8.34 55.593 23.347c14.454 15.012 23.347 35.026 23.347 55.593 0 102.846-40.028 199.020-112.85 271.845-72.827 72.825-169.001 112.851-271.846 112.851-20.569 0-41.138-8.339-55.592-23.349s-23.349-35.023-23.349-55.591c0-20.569 8.339-40.582 23.349-55.592s35.023-23.349 55.592-23.349l-0.556 0.556zM435.29 394.634c6.115 0 12.23-2.227 16.122-6.671 4.447-4.449 6.671-10.010 6.671-16.123 0-20.572 8.339-41.139 23.349-55.593s34.465-23.347 55.59-23.347c21.125 0 40.586 8.34 55.593 23.347 15.012 15.012 23.347 35.021 23.347 55.593 0 48.364-18.898 93.949-52.813 127.86-33.352 33.355-80.050 52.812-127.859 52.812-21.125 0-41.138-8.339-55.591-23.349-15.010-15.010-23.349-34.467-23.349-55.591s8.339-40.584 22.793-55.591c14.454-14.454 35.023-23.347 55.592-23.347h0.556zM787.738 223.411c-14.459-14.454-23.352-35.026-23.352-55.593v-55.035c0-10.010 0-15.565 0-18.903-2.78 0-8.335 0-18.898 0h-568.706c-11.674 0-17.233 0-18.345-0.558 0 2.78-0.556 8.34-0.556 20.014l-2.224 587.606h76.161c19.457-2.224 41.138 8.339 55.591 22.793 15.010 15.010 23.349 34.467 23.349 55.592s-8.339 40.582-22.793 55.591c-15.010 15.010-34.467 23.349-55.592 23.349h-76.717c-20.569 0-40.582-3.891-59.483-11.674s-36.134-18.902-50.588-33.355c-14.454-14.454-26.128-31.687-33.911-50.588s-11.674-38.915-11.674-59.483v-590.383c0-43.361 5.559-69.489 19.457-96.174 13.898-26.127 35.023-47.252 61.151-61.153 26.684-14.454 52.812-19.456 96.174-19.456h568.706c43.361 0 69.489 5.56 96.174 19.456 26.127 13.901 47.252 35.026 61.148 61.153 14.454 26.685 19.456 52.813 19.456 96.174v55.035c0 20.567-8.335 41.139-23.347 55.593-29.466 29.46-81.72 29.46-111.181 0zM435.29 960c-20.569 0-41.138-8.339-55.591-23.349s-23.349-34.467-23.349-55.592c0-21.125 8.339-41.138 23.349-55.592s35.023-23.348 55.591-23.348c56.704 0 112.294-11.119 165.107-32.799s99.512-53.368 139.535-93.394c40.028-40.026 71.716-87.279 93.394-139.535 21.683-52.256 32.799-107.847 32.799-165.109 0-20.567 8.34-41.134 23.352-55.588 15.007-14.454 35.021-23.352 55.588-23.352 20.572 0 41.139 8.34 55.593 23.352 14.454 15.007 23.347 35.021 23.347 55.588 0 324.657-264.059 588.718-588.715 588.718z" />
<glyph unicode="&#xe91a;" glyph-name="add" horiz-adv-x="973" d="M500.64 908.744c-91.128 1.312-180.599-24.429-257.098-73.967s-136.59-120.648-172.675-204.337c-36.085-83.69-46.542-176.2-30.050-265.835 16.492-89.631 59.193-172.36 122.703-237.727 63.51-65.362 144.976-110.428 234.098-129.49 89.122-19.067 181.895-11.274 266.59 22.385 84.69 33.664 157.501 91.684 209.219 166.728 51.722 75.039 80.026 163.732 81.336 254.858 1.623 122.163-45.276 239.979-130.412 327.602s-201.554 137.893-323.711 139.783v0zM647.040 407.388l-115.185 1.654-1.659-115.185c-0.148-10.184-4.332-19.891-11.638-26.993-7.304-7.096-17.129-10.998-27.312-10.854-10.183 0.148-19.891 4.332-26.988 11.638s-11.002 17.132-10.855 27.31l1.658 115.19-115.188 1.659c-10.183 0.148-19.891 4.332-26.988 11.638-7.097 7.301-11.002 17.126-10.855 27.31s4.333 19.892 11.637 26.989c7.304 7.097 17.128 11.002 27.312 10.855l115.188-1.657 1.658 115.188c0.146 10.183 4.332 19.891 11.636 26.988s17.129 11.002 27.312 10.855c10.183-0.147 19.892-4.333 26.989-11.637s11.003-17.129 10.854-27.312l-1.659-115.188 115.19-1.657c10.184-0.146 19.891-4.333 26.988-11.637s11.003-17.128 10.854-27.311c-0.143-10.184-4.332-19.891-11.633-26.988-7.306-7.096-17.132-11.003-27.315-10.854z" />
<glyph unicode="&#xe91b;" glyph-name="money" d="M871.949 702.079h-635.198c-33.412 0-64.79 15.922-84.694 42.304 19.352 25.704 50.139 42.389 84.694 42.389h719.896c83.507 1.44 83.462 125.643 0 127.040h-719.896c-128.396 0-232.907-104.469-232.907-232.907v-465.814c0-128.435 104.511-232.902 232.907-232.902h635.198c81.728 0 148.218 66.483 148.218 148.211v423.466c0 81.729-66.49 148.214-148.218 148.214zM893.126 130.4c0-11.686-9.53-21.171-21.178-21.171h-635.198c-58.396 0-105.867 47.507-105.867 105.862v385.525c32.31-16.515 68.517-25.577 105.867-25.577h635.198c11.648 0 21.178-9.486 21.178-21.174v-423.466zM808.429 342.132c-1.44-83.508-125.638-83.464-127.040 0 1.44 83.508 125.645 83.465 127.040 0z" />
<glyph unicode="&#xe91c;" glyph-name="alarm" horiz-adv-x="1170" d="M326.922 867.199c10.455-39.020-12.701-79.127-51.719-89.582-22.737-6.092-43.47-18.062-60.113-34.706s-28.614-37.377-34.707-60.113c-10.455-39.020-50.561-62.175-89.581-51.72s-62.175 50.562-51.72 89.582c12.738 47.54 37.766 90.89 72.568 125.691s78.152 59.83 125.692 72.568c39.019 10.455 79.126-12.701 89.581-51.72zM810.986 867.199c-10.452-39.020 12.705-79.127 51.719-89.582 22.74-6.092 43.469-18.062 60.116-34.706s28.613-37.377 34.706-60.113c10.452-39.020 50.564-62.175 89.578-51.72 39.022 10.456 62.179 50.562 51.727 89.582-12.741 47.54-37.771 90.89-72.572 125.691s-78.153 59.83-125.689 72.568c-39.022 10.455-79.126-12.701-89.585-51.72zM568.958-25.432c-228.909 0-414.476 185.563-414.476 414.474 0 228.909 185.567 414.476 414.476 414.476 228.906 0 414.477-185.568 414.477-414.476 0-228.91-185.571-414.474-414.477-414.474zM605.53 596.28c0 20.198-16.374 36.571-36.571 36.571s-36.571-16.374-36.571-36.571v-188.952c0-30.297 24.56-54.857 54.857-54.857h137.143c20.2 0 36.569 16.374 36.569 36.571s-16.369 36.571-36.569 36.571h-118.857v170.666z" />
<glyph unicode="&#xe91d;" glyph-name="sla-arrow" d="M219.792 326.463l72.408 72.406 168.596-168.594v516.39c0 28.277 22.923 51.2 51.2 51.2s51.2-22.923 51.2-51.2v-516.39l168.595 168.594 72.408-72.406-292.203-292.204-292.204 292.204z" />
<glyph unicode="&#xe91e;" glyph-name="trash" d="M981.333 768c0 35.346-28.651 64-64 64h-161.109c-26.961 76.486-99.127 127.74-180.224 128h-128c-81.097-0.26-153.263-51.514-180.223-128h-161.11c-35.346 0-64-28.654-64-64s28.654-64 64-64h21.334v-533.333c0-129.604 105.064-234.667 234.666-234.667h298.667c129.604 0 234.667 105.062 234.667 234.667v533.333h21.333c35.349 0 64 28.654 64 64zM768 170.667c0-58.91-47.757-106.667-106.667-106.667h-298.667c-58.91 0-106.666 47.757-106.666 106.667v533.333h511.999v-533.333zM405.333 192c35.345 0 64 28.655 64 64v256c0 35.346-28.655 64-64 64s-64-28.654-64-64v-256c0-35.345 28.654-64 64-64zM618.667 192c35.345 0 64 28.655 64 64v256c0 35.346-28.655 64-64 64s-64-28.654-64-64v-256c0-35.345 28.655-64 64-64z" />
<glyph unicode="&#xe91f;" glyph-name="paper-plane" d="M981.312 917.232c-35.281 35.775-86.733 50.443-135.573 38.65l-652.194-137.068c-123.854-18.327-209.4-133.588-191.072-257.441 7.125-48.149 29.56-92.731 63.985-127.142l69.92-69.965c3.274-3.23 5.103-7.646 5.077-12.245v-129.007c0.094-80.256 65.131-145.293 145.387-145.387h129.005c4.605 0 9.025-1.826 12.288-5.077l69.918-69.918c42.278-42.56 99.776-66.509 159.765-66.551 24.759 0.021 49.357 4.070 72.819 11.989 80.969 26.889 139.81 97.207 152 181.649l137.067 650.144c12.318 49.357-2.27 101.549-38.391 137.368zM133.179 626.032c11.594 35.821 42.882 61.687 80.244 66.336 1.508 0.2 2.999 0.456 4.479 0.768l568.324 119.449-516.789-516.492v55.932c0.094 38.579-15.272 75.593-42.66 102.767l-69.836 69.922c-26.898 26.307-36.161 65.793-23.763 101.318zM756.962 153.865c-0.341-1.493-0.555-2.987-0.768-4.48-7.411-54.037-57.22-91.84-111.258-84.429-21.35 2.927-41.156 12.757-56.401 27.989l-69.875 69.879c-27.187 27.396-64.213 42.761-102.812 42.658h-55.928l516.662 516.79-119.62-568.408z" />
<glyph unicode="&#xe920;" glyph-name="pencil" d="M973.824 909.824c-32.61 31.162-75.981 48.551-121.088 48.551s-88.474-17.389-121.088-48.551l-662.912-662.912c-21.849-21.73-39.174-47.573-50.972-76.041s-17.836-58.991-17.764-89.805v-81.067c0-16.973 6.743-33.254 18.745-45.257s28.281-18.743 45.255-18.743h81.067c30.829-0.081 61.368 5.948 89.85 17.749 28.482 11.797 54.341 29.129 76.080 50.987l662.826 662.912c32.068 32.139 50.078 75.687 50.078 121.088s-18.010 88.949-50.078 121.088zM220.416 95.232c-20.037-19.908-47.104-31.125-75.349-31.232h-17.067v17.067c0.088 28.275 11.308 55.373 31.232 75.435l493.568 493.44 61.141-61.141-493.525-493.568zM883.2 758.144l-78.763-78.891-61.184 61.184 78.933 78.763c8.235 7.869 19.183 12.26 30.571 12.26s22.34-4.391 30.571-12.26c8.047-8.131 12.553-19.115 12.527-30.554s-4.574-22.405-12.655-30.502z" />
<glyph unicode="&#xe921;" glyph-name="link" d="M444.13 124.288c-67.755-70.263-178.099-76.745-253.614-14.895-44.972 38.938-67.945 97.485-61.451 156.617 5.623 43.597 25.999 83.955 57.739 114.368l122.733 122.816c24.989 24.998 24.989 65.516 0 90.513-24.997 24.989-65.516 24.989-90.513 0l-120.129-120.175c-54.758-52.8-89.291-123.119-97.598-198.733-15.517-170.308 109.965-320.947 280.272-336.465 91.459-8.333 181.901 24.363 246.887 89.254l128.367 128.32c24.986 24.998 24.986 65.515 0 90.513-24.998 24.99-65.519 24.99-90.513 0l-122.18-122.133zM902.891 897.399c-127.437 93.629-304.401 78.951-414.669-34.397l-120.814-120.855c-24.989-24.997-24.989-65.516 0-90.513 24.997-24.989 65.518-24.989 90.512 0l122.735 122.605c66.274 68.547 173.508 76.268 248.922 17.923 77.619-63.648 88.947-178.167 25.297-255.788-3.725-4.544-7.667-8.9-11.814-13.060l-128.367-128.367c-24.986-24.998-24.986-65.519 0-90.513 24.998-24.99 65.519-24.99 90.513 0l128.367 128.367c120.849 121.233 120.538 317.48-0.7 438.328-9.417 9.39-19.435 18.163-29.982 26.269zM367.415 394.842l198.886 198.889c24.998 24.999 65.527 24.999 90.53 0 24.998-24.999 24.998-65.53 0-90.528l-198.891-198.886c-24.998-24.998-65.527-24.998-90.526 0s-24.998 65.527 0 90.526z" />
<glyph unicode="&#xe922;" glyph-name="bell" d="M76.511 743.582c-3.771 6.387-6.247 13.455-7.286 20.8s-0.62 14.822 1.231 22.005c1.852 7.183 5.1 13.931 9.56 19.858s10.044 10.918 16.433 14.686l124.101 73.516c6.387 4.121 13.54 6.911 21.031 8.202s15.165 1.056 22.563-0.69c7.397-1.746 14.367-4.968 20.49-9.473s11.273-10.198 15.143-16.741c3.87-6.542 6.378-13.799 7.376-21.334s0.464-15.194-1.569-22.518c-2.033-7.324-5.524-14.163-10.263-20.105s-10.63-10.867-17.318-14.479l-124.139-73.515c-6.387-3.771-13.455-6.247-20.8-7.286s-14.822-0.62-22.005 1.231c-7.183 1.851-13.931 5.1-19.858 9.56s-10.918 10.044-14.687 16.433l-0.002-0.151zM937.406 215.377c-12.631 8.041-27.943 10.74-42.562 7.499-14.619-3.247-27.353-12.162-35.4-24.793l-77.041-120.916c-4.162-6.252-7.035-13.27-8.451-20.643-1.416-7.379-1.349-14.962 0.199-22.311 1.554-7.343 4.554-14.312 8.83-20.486 4.271-6.174 9.734-11.433 16.065-15.468 6.337-4.042 13.408-6.776 20.811-8.047 7.403-1.265 14.981-1.048 22.299 0.645 7.313 1.699 14.216 4.837 20.305 9.228 6.090 4.397 11.24 9.963 15.155 16.372l77.041 120.922c3.994 6.252 6.722 13.234 8.017 20.546 1.295 7.307 1.138 14.8-0.464 22.046s-4.62 14.107-8.873 20.191c-4.259 6.078-9.674 11.264-15.932 15.252v-0.036zM846.42 310.814l-138.692-218.829c-16.872-26.763-39.617-49.321-66.512-65.97-26.901-16.649-57.239-26.943-88.713-30.106-8.299-0.837-16.638-1.205-24.979-1.108-46.266 0.849-90.914 17.173-126.819 46.369-29.953-28.22-69.761-43.586-110.904-42.827-41.143 0.765-80.353 17.607-109.238 46.911-28.885 29.31-45.15 68.765-45.314 109.911-0.164 41.153 15.785 80.733 44.435 110.267l-55.427 57.278c-22.187 22.648-38.919 50.052-48.925 80.135s-13.021 62.051-8.818 93.476c4.017 31.113 15.073 60.901 32.328 87.101s40.254 48.123 67.251 64.102l208.383 124.525c57.499 35.636 124.365 53.207 191.955 50.442 67.588-2.765 132.798-25.739 187.191-65.952l47.351 46.044c10.746 10.44 25.196 16.184 40.177 15.968s29.262-6.373 39.701-17.118c10.445-10.745 16.185-25.197 15.968-40.178-0.211-14.98-6.373-29.261-17.113-39.701l-47.315-45.969c36.707-53.229 57.513-115.799 60-180.408 2.482-64.61-13.463-128.593-45.972-184.48v0.114zM715.619 640.52c-35.997 37.273-83.679 61.083-135.101 67.462s-103.478-5.059-147.49-32.408l-208.879-125.008c-12.321-7.316-22.815-17.342-30.685-29.317s-12.91-25.585-14.738-39.797c-1.929-14.526-0.52-29.3 4.121-43.198s12.392-26.555 22.662-37.007l256.436-264.538c10.165-10.415 22.554-18.396 36.24-23.341 13.685-4.951 28.314-6.74 42.789-5.234s28.423 6.264 40.798 13.92c12.375 7.656 22.857 18.016 30.664 30.298l137.65 217.074c24.48 42.775 34.364 92.361 28.148 141.254-6.21 48.892-28.178 94.431-62.578 129.726l-0.036 0.113z" />
<glyph unicode="&#xe923;" glyph-name="envelop" d="M789.333 917.34h-554.667c-62.217-0.068-121.866-24.813-165.86-68.807s-68.739-103.643-68.807-165.86v-469.334c0.068-62.214 24.813-121.862 68.807-165.86 43.994-43.992 103.643-68.739 165.86-68.807h554.667c62.219 0.068 121.867 24.815 165.86 68.807 43.992 43.998 68.739 103.646 68.807 165.86v469.334c-0.068 62.217-24.815 121.866-68.807 165.86s-103.64 68.739-165.86 68.807v0zM789.333 789.34c25.873-0.086 50.819-9.666 70.098-26.923l-277.333-277.333c-18.834-17.991-43.88-28.030-69.928-28.030s-51.094 10.039-69.931 28.030l-277.333 277.333c19.194 17.179 44.002 26.753 69.76 26.923h554.667zM789.333 106.672h-554.667c-28.29 0-55.421 11.241-75.425 31.243s-31.242 47.132-31.242 75.423v404.609l223.531-223.531c21.067-21.078 46.080-37.792 73.61-49.204 27.53-11.406 57.038-17.277 86.838-17.277s59.305 5.871 86.839 17.277c27.529 11.412 52.543 28.126 73.609 49.204l223.573 223.531v-404.609c0-28.291-11.236-55.421-31.243-75.423-20.002-20.002-47.132-31.243-75.423-31.243z" />
<glyph unicode="&#xe924;" glyph-name="envelop-open" d="M951.723 626.043l-279.253 267.52c-42.402 42.391-99.857 66.279-159.817 66.447-59.955 0.168-117.544-23.398-160.183-65.551l-280.192-268.416c-22.81-21.956-40.965-48.281-53.382-77.405s-18.844-60.45-18.895-92.109v-285.867c0.068-62.217 24.813-121.865 68.807-165.858 43.994-43.998 103.643-68.74 165.859-68.809h554.667c62.217 0.068 121.865 24.811 165.858 68.809 43.994 43.994 68.74 103.642 68.809 165.858v285.867c-0.051 31.659-6.477 62.985-18.897 92.109-12.416 29.124-30.571 55.449-53.38 77.405zM442.027 802.982c9.293 9.209 20.309 16.493 32.422 21.434s25.084 7.441 38.165 7.358c13.082-0.083 26.018-2.749 38.067-7.843s22.972-12.518 32.145-21.845l229.632-219.989-225.109-230.868c-20.322-19.405-47.339-30.234-75.435-30.234s-55.113 10.829-75.435 30.234l-227.968 228.052 233.515 223.701zM896 170.662c0-28.292-11.238-55.42-31.241-75.426-20.006-20.002-47.138-31.241-75.426-31.241h-554.667c-28.29 0-55.421 11.238-75.425 31.241-20.004 20.006-31.242 47.134-31.242 75.426v285.867c0.030 6.78 0.73 13.538 2.091 20.181l215.979-216.021c44.237-43.853 104.034-68.412 166.323-68.305 62.289 0.102 122.001 24.858 166.093 68.86l214.357 219.776c2.014-8.013 3.076-16.23 3.157-24.491v-285.867z" />
<glyph unicode="&#xe925;" glyph-name="adjustment" d="M126.78 504.142c30.897 209.965 226.154 355.128 436.118 324.231 71.639-10.541 138.839-41.107 193.859-88.178l-49.531-49.532c-16.599-16.606-16.599-43.527 0.010-60.128 7.972-7.968 18.78-12.446 30.049-12.448h194.985c23.48 0 42.516 19.035 42.516 42.516v194.984c-0.005 23.481-19.046 42.512-42.527 42.508-11.269-0.002-22.077-4.48-30.049-12.448l-55.276-55.271c-210.78 187.889-533.964 169.334-721.853-41.444-66.564-74.671-109.76-167.229-124.237-266.209-5.708-35.090 18.11-68.164 53.199-73.872 3.161-0.514 6.354-0.791 9.556-0.831 32.103 0.347 59.050 24.285 63.18 56.123zM950.584 448.025c-32.102-0.348-59.054-24.284-63.181-56.125-30.899-209.961-226.156-355.123-436.121-324.229-71.636 10.542-138.835 41.108-193.858 88.177l49.532 49.531c16.602 16.604 16.598 43.525-0.010 60.129-7.97 7.967-18.78 12.447-30.050 12.447h-194.98c-23.481 0-42.516-19.036-42.516-42.516v-194.98c0.006-23.485 19.045-42.516 42.527-42.511 11.27 0 22.080 4.48 30.050 12.447l55.272 55.276c210.728-187.909 533.89-169.416 721.799 41.318 66.601 74.685 109.819 167.276 124.293 266.291 5.729 35.087-18.068 68.178-53.151 73.907-3.18 0.522-6.39 0.799-9.605 0.839zM645.704 501.331c8.489 0 16.63 3.372 22.63 9.373s9.37 14.14 9.37 22.627v14.657c-0.036 30.049-11.991 58.855-33.239 80.103s-50.053 33.202-80.102 33.242h-25.324v10.666c0 8.487-3.374 16.627-9.375 22.628s-14.141 9.373-22.626 9.373c-8.487 0-16.627-3.372-22.628-9.373s-9.373-14.14-9.373-22.628v-10.666h-25.323c-27.211 0.040-53.529-9.71-74.146-27.47s-34.156-42.344-38.144-69.262c-3.988-26.917 1.84-54.372 16.421-77.347s36.94-39.941 62.994-47.79l58.198-15.918v-124.882h-25.323c-13.082 0.015-25.623 5.217-34.873 14.469s-14.455 21.791-14.472 34.872v14.659c0 8.484-3.372 16.625-9.373 22.625s-14.14 9.375-22.627 9.375c-8.487 0-16.627-3.374-22.628-9.375s-9.373-14.141-9.373-22.625v-14.659c0.039-30.049 11.994-58.854 33.242-80.102s50.055-33.203 80.103-33.244h25.323v-10.665c0-8.489 3.372-16.625 9.373-22.625s14.14-9.375 22.628-9.375c8.485 0 16.626 3.374 22.626 9.375s9.375 14.136 9.375 22.625v10.665h25.324c27.208-0.036 53.53 9.713 74.143 27.474 20.618 17.756 34.156 42.342 38.144 69.258 3.988 26.921-1.838 54.374-16.42 77.348-14.582 22.979-36.941 39.939-62.991 47.791l-58.199 15.872v124.93h25.324c13.082-0.017 25.62-5.221 34.872-14.472s14.454-21.791 14.469-34.873v-14.657c0-8.487 3.374-16.626 9.375-22.627s14.141-9.373 22.625-9.373zM579.19 395.11c11.254-3.543 20.864-11.008 27.090-21.028 6.231-10.025 8.658-21.944 6.856-33.608-1.807-11.663-7.731-22.287-16.696-29.962-8.965-7.67-20.383-11.873-32.184-11.848h-25.216v107.412l40.151-10.967zM475.037 489.918l-40.15 10.966c-11.246 3.544-20.852 10.996-27.080 21.008s-8.667 21.922-6.875 33.576c1.791 11.654 7.695 22.282 16.643 29.961s20.348 11.901 32.139 11.905h25.323v-107.415z" />
<glyph unicode="&#xe926;" glyph-name="statement" d="M810.667 896v-47.232c38.485-19.641 70.804-49.527 93.389-86.364 22.591-36.837 34.566-79.195 34.611-122.404v-469.333c-0.080-62.214-24.826-121.856-68.818-165.848s-103.634-68.739-165.848-68.818h-384c-62.217 0.068-121.866 24.815-165.86 68.807s-68.739 103.64-68.807 165.86v469.333c0.047 43.209 12.023 85.567 34.609 122.404s54.903 66.723 93.391 86.364v47.232c0 16.974 6.743 33.253 18.745 45.255s28.281 18.745 45.255 18.745c16.974 0 33.253-6.743 45.255-18.745s18.745-28.281 18.745-45.255v-21.333h106.667v21.333c0 16.974 6.743 33.253 18.745 45.255s28.281 18.745 45.255 18.745c16.974 0 33.253-6.743 45.255-18.745 12.004-12.002 18.745-28.281 18.745-45.255v-21.333h106.667v21.333c0 16.974 6.741 33.253 18.745 45.255s28.279 18.745 45.255 18.745c16.976 0 33.252-6.743 45.255-18.745s18.745-28.281 18.745-45.255zM779.423 95.243c20.008 20.002 31.243 47.132 31.243 75.423v469.333c0 28.29-11.236 55.421-31.243 75.425-20.002 20.004-47.132 31.242-75.423 31.242h-384c-28.29 0-55.421-11.238-75.425-31.242s-31.242-47.135-31.242-75.425v-469.333c0-28.291 11.238-55.421 31.242-75.423 20.004-20.008 47.135-31.243 75.425-31.243h384c28.291 0 55.421 11.236 75.423 31.243zM405.333 661.333c-35.346 0-64-28.654-64-64s28.654-64 64-64h213.333c35.345 0 64 28.654 64 64s-28.655 64-64 64h-213.333zM341.333 426.667c0 35.346 28.654 64 64 64h213.333c35.345 0 64-28.654 64-64s-28.655-64-64-64h-213.333c-35.346 0-64 28.654-64 64zM405.333 320c-35.346 0-64-28.655-64-64s28.654-64 64-64h213.333c35.345 0 64 28.655 64 64s-28.655 64-64 64h-213.333z" />
<glyph unicode="&#xe927;" glyph-name="megaphone" d="M704 960c-16.973 0-33.254-6.743-45.257-18.745s-18.743-28.281-18.743-45.255c0-56.192-14.677-106.667-192-106.667h-256c-50.904-0.056-99.707-20.303-135.702-56.298s-56.241-84.798-56.298-135.702v-128c0.117-34.59 9.61-68.501 27.469-98.129 17.859-29.623 43.416-53.85 73.95-70.106l135.595-302.635c8.272-18.59 21.754-34.381 38.814-45.466 17.060-11.089 36.968-16.99 57.314-16.998 15.561 0.009 30.874 3.908 44.547 11.337s25.275 18.155 33.751 31.202c8.477 13.052 13.56 28.011 14.788 43.524s-1.437 31.087-7.753 45.308l-96.299 209.963h125.824c177.323 0 192-50.475 192-106.667 0-16.973 6.741-33.254 18.743-45.257s28.284-18.743 45.257-18.743c16.973 0 33.254 6.741 45.257 18.743s18.743 28.284 18.743 45.257v725.333c0 16.974-6.741 33.253-18.743 45.255s-28.284 18.745-45.257 18.745v0zM640 374.997c-61.372 22.677-126.626 32.99-192 30.336h-256c-16.974 0-33.253 6.741-45.255 18.743s-18.745 28.284-18.745 45.257v128c0 16.974 6.743 33.253 18.745 45.255s28.281 18.745 45.255 18.745h256c65.374-2.653 130.628 7.657 192 30.336v-316.672zM1017.259 291.371c-3.759-7.522-8.96-14.229-15.313-19.738-6.349-5.508-13.722-9.715-21.7-12.373-7.974-2.658-16.397-3.716-24.785-3.123-8.384 0.597-16.572 2.842-24.090 6.605l-42.667 21.333c-15.185 7.595-26.735 20.907-32.102 37.013s-4.122 33.69 3.473 48.875c7.595 15.185 20.907 26.735 37.013 32.102s33.69 4.122 48.875-3.473l42.667-21.333c7.522-3.759 14.229-8.96 19.738-15.313 5.508-6.349 9.715-13.722 12.373-21.7 2.658-7.974 3.716-16.397 3.123-24.785-0.597-8.384-2.842-16.572-6.605-24.090v0zM860.075 696.704c-3.763 7.519-6.007 15.705-6.601 24.092-0.597 8.386 0.461 16.808 3.119 24.784 2.662 7.976 6.865 15.35 12.373 21.701s12.215 11.554 19.738 15.312l42.667 21.333c15.185 7.593 32.768 8.842 48.875 3.473s29.419-16.917 37.013-32.103c7.595-15.186 8.841-32.766 3.473-48.873s-16.917-29.422-32.102-37.015l-42.667-21.333c-7.518-3.762-15.706-6.006-24.090-6.603-8.388-0.597-16.811 0.464-24.785 3.123-7.979 2.659-15.351 6.863-21.7 12.372-6.353 5.51-11.554 12.216-15.313 19.737v0zM853.333 533.333c0 16.974 6.741 33.253 18.743 45.255s28.284 18.745 45.257 18.745h42.667c16.973 0 33.254-6.743 45.257-18.745s18.743-28.281 18.743-45.255c0-16.973-6.741-33.254-18.743-45.257s-28.284-18.743-45.257-18.743h-42.667c-16.973 0-33.254 6.741-45.257 18.743s-18.743 28.284-18.743 45.257z" />
<glyph unicode="&#xe928;" glyph-name="user-add" d="M317.973 361.924c-181.829-16.435-320.356-170.078-317.942-352.631v-9.254c0-35.345 28.653-64 63.998-64s63.998 28.655 63.998 64v11.814c-1.924 112.090 80.794 207.671 191.994 221.862 117.381 11.639 221.978-74.082 233.617-191.467 0.687-6.938 1.037-13.905 1.041-20.881v-21.333c0-35.345 28.655-63.996 64-63.996s63.996 28.651 63.996 63.996v21.333c-0.209 188.719-153.365 341.538-342.083 341.329-7.548-0.009-15.092-0.265-22.619-0.772zM341.325 447.996c141.38 0 255.991 114.612 255.991 255.991s-114.611 255.992-255.991 255.992c-141.379 0-255.992-114.613-255.992-255.992 0.142-141.322 114.671-255.851 255.992-255.991zM341.325 831.983c70.69 0 127.995-57.306 127.995-127.996s-57.306-127.996-127.995-127.996c-70.69 0-127.996 57.306-127.996 127.996s57.306 127.996 127.996 127.996zM959.991 533.316h-64v63.998c0 35.345-28.655 63.998-63.996 63.998-35.345 0-64-28.653-64-63.998v-63.998h-63.996c-35.345 0-64-28.651-64-63.996s28.655-64 64-64h63.996v-63.996c0-35.345 28.655-64 64-64 35.341 0 63.996 28.655 63.996 64v63.996h64c35.341 0 63.996 28.655 63.996 64s-28.655 63.996-63.996 63.996z" />
<glyph unicode="&#xe929;" glyph-name="scan" d="M960 384h-896c-35.346 0-64 28.655-64 64s28.654 64 64 64h896c35.345 0 64-28.655 64-64s-28.655-64-64-64zM960 298.675c-16.973 0-33.254-6.741-45.257-18.743s-18.743-28.279-18.743-45.257v-63.996c0-28.292-11.238-55.424-31.241-75.426-20.006-20.002-47.138-31.241-75.426-31.241h-64c-16.973 0-33.254-6.746-45.257-18.748s-18.743-28.279-18.743-45.252c0-16.977 6.741-33.254 18.743-45.257s28.284-18.743 45.257-18.743h64c62.217 0.068 121.865 24.811 165.858 68.804s68.74 103.646 68.809 165.862v63.996c0 16.977-6.741 33.254-18.743 45.257s-28.284 18.743-45.257 18.743zM64 597.333c16.974 0 33.253 6.743 45.255 18.745s18.745 28.281 18.745 45.255v64c0 28.29 11.238 55.421 31.242 75.425s47.135 31.242 75.425 31.242h64c16.974 0 33.253 6.743 45.255 18.745s18.745 28.281 18.745 45.255c0 16.974-6.743 33.253-18.745 45.255s-28.281 18.745-45.255 18.745h-64c-62.217-0.068-121.866-24.813-165.859-68.807s-68.739-103.643-68.807-165.859v-64c0-16.974 6.743-33.253 18.745-45.255s28.281-18.745 45.255-18.745zM298.667 64.013h-64c-28.29 0-55.421 11.238-75.425 31.241s-31.242 47.134-31.242 75.426v63.996c0 16.977-6.743 33.254-18.745 45.257s-28.281 18.743-45.255 18.743c-16.974 0-33.253-6.741-45.255-18.743s-18.745-28.279-18.745-45.257v-63.996c0.068-62.217 24.813-121.869 68.807-165.862s103.643-68.736 165.859-68.804h64c16.974 0 33.253 6.741 45.255 18.743s18.745 28.279 18.745 45.257c0 16.973-6.743 33.25-18.745 45.252s-28.281 18.748-45.255 18.748zM789.333 960h-64c-16.973 0-33.254-6.743-45.257-18.745s-18.743-28.281-18.743-45.255c0-16.974 6.741-33.253 18.743-45.255s28.284-18.745 45.257-18.745h64c28.288 0 55.42-11.238 75.426-31.242 20.002-20.004 31.241-47.135 31.241-75.425v-64c0-16.974 6.741-33.253 18.743-45.255s28.284-18.745 45.257-18.745c16.973 0 33.254 6.743 45.257 18.745s18.743 28.281 18.743 45.255v64c-0.068 62.217-24.815 121.866-68.809 165.859s-103.642 68.739-165.858 68.807v0z" />
<glyph unicode="&#xe92a;" glyph-name="setting" d="M511.987 634.125c-36.817 0-72.806-10.918-103.421-31.372-30.613-20.455-54.473-49.528-68.563-83.542-14.089-34.018-17.776-71.445-10.593-107.558 7.183-36.109 24.913-69.278 50.947-95.313s59.204-43.763 95.313-50.948c36.113-7.181 73.54-3.494 107.558 10.594 34.014 14.089 63.087 37.952 83.541 68.565 20.454 30.609 31.373 66.603 31.373 103.42-0.055 49.353-19.686 96.67-54.583 131.569-34.901 34.898-82.214 54.529-131.571 54.586zM511.987 389.815c-11.503 0-22.746 3.409-32.307 9.801-9.566 6.391-17.020 15.475-21.419 26.099-4.403 10.628-5.555 22.319-3.311 33.6s7.782 21.645 15.915 29.777c8.137 8.132 18.496 13.67 29.777 15.915s22.976 1.092 33.6-3.307c10.628-4.403 19.708-11.857 26.099-21.423 6.391-9.562 9.801-20.804 9.801-32.307-0.009-15.42-6.14-30.204-17.045-41.109-10.901-10.901-25.69-17.033-41.109-17.045zM938.752 448c-0.064 65.378-15.266 129.853-44.416 188.373l21.931 15.232c13.922 9.705 23.42 24.542 26.402 41.248 2.987 16.707-0.789 33.915-10.487 47.84-9.707 13.923-24.542 23.42-41.25 26.405s-33.916-0.789-47.838-10.49l-21.973-15.275c-65.148 68.76-151.386 113.807-245.035 128v26.667c0 16.974-6.746 33.253-18.748 45.255s-28.279 18.745-45.252 18.745c-16.977 0-33.254-6.743-45.257-18.745s-18.743-28.281-18.743-45.255v-26.667c-93.654-14.193-179.889-59.24-245.036-128l-21.973 15.275c-13.925 9.701-31.133 13.475-47.839 10.49s-31.544-12.482-41.249-26.405c-9.701-13.925-13.475-31.133-10.49-47.84s12.483-31.544 26.405-41.248l21.931-15.232c-29.209-58.499-44.415-122.987-44.415-188.373s15.206-129.873 44.415-188.373l-21.931-15.232c-13.922-9.707-23.42-24.542-26.405-41.25-2.985-16.704 0.789-33.911 10.49-47.838 9.705-13.922 24.542-23.42 41.249-26.406 16.707-2.982 33.914 0.789 47.839 10.492l21.973 15.275c65.147-68.762 151.383-113.809 245.036-128v-26.667c0-16.973 6.741-33.254 18.743-45.257s28.279-18.743 45.257-18.743c16.973 0 33.25 6.741 45.252 18.743s18.748 28.284 18.748 45.257v26.667c93.649 14.191 179.887 59.238 245.035 128l21.973-15.275c13.922-9.702 31.13-13.474 47.838-10.492 16.708 2.987 31.543 12.484 41.25 26.406 9.698 13.926 13.474 31.134 10.487 47.838-2.982 16.708-12.48 31.543-26.402 41.25l-21.931 15.232c29.15 58.522 44.352 122.995 44.416 188.373zM512.085 149.333c-59.072 0-116.816 17.515-165.932 50.334s-87.396 79.462-110.001 134.037c-22.606 54.575-28.52 114.628-16.996 172.561 11.524 57.937 39.969 111.154 81.739 152.924s94.987 70.214 152.921 81.739c57.937 11.524 117.99 5.609 172.561-16.996 54.575-22.606 101.222-60.886 134.042-110.002 32.815-49.115 50.334-106.858 50.334-165.93-0.102-79.181-31.603-155.089-87.59-211.076-55.991-55.991-131.9-87.488-211.076-87.59z" />
<glyph unicode="&#xe92b;" glyph-name="video-play" d="M874.326 619.968l-406.954 298.411c-31.786 23.275-69.396 37.294-108.661 40.503s-78.653-4.518-113.795-22.323c-35.143-17.806-64.668-44.995-85.305-78.554s-31.577-72.177-31.61-111.573v-597.12c-0.061-39.435 10.823-78.114 31.44-111.73s50.157-60.855 85.335-78.673c35.177-17.827 74.611-25.535 113.911-22.277s76.925 17.361 108.686 40.737l406.954 298.407c27.003 19.816 48.96 45.712 64.096 75.592s23.021 62.903 23.021 96.397c0 33.494-7.885 66.517-23.021 96.397s-37.093 55.776-64.096 75.593v0.213z" />
<glyph unicode="&#xe92c;" glyph-name="video-pause" d="M277.334 960c-39.606 0-77.589-15.733-105.595-43.739s-43.739-65.989-43.739-105.595v-725.333c0-39.606 15.733-77.588 43.739-105.6 28.005-28.002 65.989-43.734 105.595-43.734s77.588 15.732 105.594 43.734c28.005 28.011 43.739 65.993 43.739 105.6v725.333c0 39.606-15.733 77.59-43.739 105.595s-65.988 43.739-105.594 43.739zM746.788 960c-39.606 0-77.589-15.733-105.595-43.739s-43.739-65.989-43.739-105.595v-725.333c0-39.606 15.733-77.588 43.739-105.6 28.005-28.002 65.988-43.734 105.595-43.734s77.588 15.732 105.594 43.734c28.005 28.011 43.739 65.993 43.739 105.6v725.333c0 39.606-15.733 77.59-43.739 105.595s-65.988 43.739-105.594 43.739z" />
<glyph unicode="&#xe92d;" glyph-name="info-circle" d="M512-64c-282.77 0-512 229.231-512 512s229.23 512 512 512c282.769 0 512-229.23 512-512-0.307-282.645-229.355-511.693-512-512zM512 832c-212.078 0-384-171.922-384-384s171.922-384 384-384c212.079 0 384 171.921 384 384-0.235 211.98-172.019 383.764-384 384zM512 579.885c35.345 0 64-28.654 64-64.002v-298.662c0-35.349-28.655-64-64-64s-64 28.651-64 64v298.662c0 35.348 28.655 64.002 64 64.002zM512.166 746.667c35.345 0 64-28.654 64-64s-28.655-64-64-64c-35.345 0-64 28.654-64 64s28.655 64 64 64z" />
<glyph unicode="&#xe92e;" glyph-name="info-fill" d="M469.333 958.862c1.024-1.707-0.91-2.162-14.791-3.3-23.78-2.048-60.416-9.102-80.327-15.474-2.958-0.91-6.144-1.707-7.168-1.707-0.91 0-3.413-0.683-5.461-1.593-2.048-0.796-6.599-2.389-10.012-3.413-14.905-4.665-36.523-12.971-51.2-19.797-18.66-8.533-38.571-18.887-46.649-24.121-0.91-0.683-2.731-1.593-3.982-2.162s-4.21-2.389-6.599-3.982c-2.389-1.593-4.551-2.958-4.779-2.958-0.91 0-26.055-17.408-35.271-24.235-37.888-28.672-75.093-66.105-103.083-103.765-4.665-6.372-8.875-12.288-9.557-13.312-0.569-1.024-3.868-5.803-7.054-10.581-3.3-4.665-6.030-8.875-6.030-9.102s-1.365-2.389-2.958-4.779c-1.593-2.389-3.413-5.348-3.982-6.599s-1.479-3.072-2.162-3.982c-7.396-11.378-22.756-42.098-29.582-59.164-1.365-3.413-3.072-7.737-3.982-9.671-3.868-8.988-11.15-30.72-17.067-50.631-5.234-18.091-10.581-43.804-13.54-65.422-3.868-27.648-4.324-38.457-3.641-79.644 0.569-41.074 1.365-55.068 3.982-68.836 0.683-4.096 2.162-11.719 3.072-17.067 3.982-22.187 6.94-33.906 15.246-60.871 8.192-26.738 16.725-47.673 30.037-74.524 6.713-13.312 11.15-21.618 14.45-26.738 1.138-1.82 2.617-4.437 3.186-5.689s2.389-4.21 3.982-6.599c1.593-2.389 2.958-4.551 2.958-4.779 0-1.024 17.636-26.396 25.486-36.864 33.678-44.26 79.531-87.495 123.563-116.281 14.791-9.671 22.073-14.222 23.893-15.019 0.91-0.455 3.3-1.82 5.12-3.072 1.934-1.252 4.551-2.731 5.916-3.3 1.365-0.683 4.551-2.503 7.054-4.096s5.006-2.844 5.575-2.844c0.569 0 5.006-2.162 10.012-4.892 4.892-2.617 14.905-7.282 22.073-10.24 7.168-3.072 14.677-6.144 16.498-7.054 12.629-5.348 41.643-14.791 63.147-20.366 22.756-5.803 53.703-11.15 77.938-13.312 16.156-1.365 89.884-0.683 105.813 1.024 23.438 2.503 63.943 10.695 78.507 15.701 2.617 0.91 5.461 1.593 6.485 1.593 1.138 0 3.641 0.683 5.689 1.593 2.048 0.796 6.827 2.503 10.581 3.641 27.762 8.306 75.093 29.582 96.711 43.463 1.252 0.683 3.3 1.82 4.551 2.389s4.21 2.389 6.599 3.982c2.389 1.593 4.551 2.958 4.779 2.958 0.91 0 26.169 17.408 35.271 24.235 37.774 28.672 75.321 66.332 103.083 103.765 4.665 6.372 8.988 12.288 9.557 13.312 0.683 1.024 3.868 5.803 7.054 10.581 3.3 4.665 6.030 8.875 6.030 9.102s1.365 2.389 2.958 4.779c1.593 2.389 3.413 5.348 3.982 6.599s2.048 3.868 3.186 5.689c6.599 10.24 22.528 42.553 28.558 57.458 1.365 3.413 3.072 7.851 3.982 9.671 3.982 9.33 12.629 34.93 17.18 51.2 4.096 14.791 5.234 19.684 10.012 43.236 1.934 9.216 4.779 30.151 6.030 43.236 0.683 6.372 1.365 8.988 2.389 8.761 1.024-0.114 1.365 8.647 1.365 41.301s-0.341 41.415-1.365 41.188c-1.024-0.114-1.707 2.844-2.389 10.012-3.186 37.205-15.019 88.86-28.103 123.449-4.892 12.857-5.803 15.474-6.713 18.318-0.569 1.593-1.479 3.868-2.162 5.12-0.683 1.138-2.731 5.461-4.437 9.557-4.779 11.036-17.18 35.84-22.756 45.284-2.731 4.551-4.892 8.533-4.892 8.875s-0.91 1.934-2.162 3.641c-1.138 1.707-7.509 11.264-14.108 21.276-13.426 20.366-28.786 39.936-44.373 56.775-5.803 6.144-10.809 11.833-11.264 12.629-0.796 1.252-20.594 19.797-33.451 31.289-5.006 4.551-18.091 15.246-27.648 22.528-3.527 2.731-13.767 9.899-22.869 15.815-9.102 6.030-17.863 11.833-19.57 12.971-1.707 1.252-3.3 2.162-3.641 2.162-0.455 0-16.612 9.216-20.025 11.378-0.91 0.683-2.503 1.479-3.413 1.934-0.91 0.341-8.078 3.755-15.929 7.396-7.851 3.755-15.701 7.396-17.636 8.192-1.82 0.796-4.892 2.162-6.827 3.072-4.21 1.82-10.354 4.21-14.222 5.575-1.593 0.569-5.689 2.048-9.102 3.413-33.906 12.971-86.016 24.917-123.449 28.103-7.168 0.683-10.126 1.365-9.899 2.389 0.114 1.024-8.647 1.365-41.415 1.365-27.534 0-41.301-0.341-40.846-1.138zM522.012 741.547c24.576-6.485 42.894-24.007 51.541-49.266 2.048-5.689 2.503-9.785 2.503-21.276 0.114-14.336-0.91-19.342-6.258-31.289-4.324-9.899-15.929-23.438-25.372-29.582-5.575-3.641-16.725-8.875-21.049-9.785-18.432-3.868-23.438-3.982-38.116-0.228-35.271 8.875-59.392 44.828-54.044 80.327 2.276 14.564 5.461 22.187 14.677 34.702 5.348 7.282 17.636 18.432 20.252 18.432 0.569 0 1.593 0.569 2.389 1.365 1.365 1.365 6.258 3.3 16.725 6.599 9.444 2.958 25.828 2.958 36.75 0zM520.192 530.034c16.156-3.982 28.786-11.833 39.481-24.69 6.827-8.192 10.012-14.108 13.881-25.941 2.048-6.372 2.162-11.833 2.162-139.378 0-119.808-0.114-133.234-1.82-138.354-7.851-24.007-23.438-40.619-45.966-49.266-2.162-0.796-8.761-2.162-14.564-3.072-8.761-1.252-12.060-1.252-20.48 0-10.581 1.593-12.743 2.276-24.121 7.737-11.264 5.575-24.576 19.228-30.492 31.63-8.42 17.294-8.192 12.516-8.192 151.78 0 139.036-0.341 133.348 7.851 150.756 2.731 5.803 6.144 10.695 11.605 16.839 18.091 19.797 45.056 28.217 70.656 21.959z" />
<glyph unicode="&#xe92f;" glyph-name="gift" d="M853.333 661.333h-74.155c24.127 21.265 43.275 47.578 56.087 77.073 12.817 29.495 18.984 61.448 18.068 93.594 0 11.316-4.494 22.168-12.498 30.17-7.999 8.001-18.853 12.497-30.168 12.497s-22.17-4.495-30.168-12.497c-8.004-8.001-12.498-18.854-12.498-30.17 0-111.872-101.16-150.613-178.091-163.883 28.393 50.344 45.488 106.267 50.091 163.883 0 33.948-13.488 66.505-37.49 90.51-24.007 24.005-56.562 37.49-90.51 37.49s-66.505-13.486-90.51-37.49c-24.005-24.005-37.49-56.562-37.49-90.51 4.604-57.616 21.697-113.538 50.091-163.883-76.928 13.269-178.091 52.011-178.091 163.883 0 11.316-4.495 22.168-12.497 30.17s-18.854 12.497-30.17 12.497c-11.316 0-22.168-4.495-30.17-12.497s-12.497-18.854-12.497-30.17c-0.917-32.146 5.251-64.099 18.067-93.594s31.964-55.808 56.088-77.073h-74.155c-45.264 0-88.673-17.981-120.68-49.987s-49.987-75.416-49.987-120.68v-42.667c0-22.632 8.99-44.337 24.994-60.342 16.003-16.003 37.708-24.991 60.34-24.991v-213.333c0.068-56.559 22.566-110.78 62.558-150.773s94.216-62.492 150.775-62.561h426.667c56.559 0.068 110.78 22.568 150.773 62.561s62.492 94.214 62.561 150.773v213.333c22.63 0 44.339 8.988 60.342 24.991 16.003 16.005 24.991 37.711 24.991 60.342v42.667c0 45.264-17.983 88.673-49.988 120.68s-75.418 49.987-120.678 49.987zM512 874.667c11.316 0 22.168-4.495 30.17-12.497s12.497-18.854 12.497-30.17c-5.151-45.347-19.681-89.127-42.667-128.555-22.986 39.428-37.516 83.207-42.667 128.555 0 11.316 4.495 22.168 12.497 30.17s18.854 12.497 30.17 12.497zM85.333 490.667c0 22.632 8.991 44.337 24.994 60.34s37.708 24.994 60.34 24.994h298.667v-128h-384v42.667zM170.667 149.333v213.333h298.667v-341.333h-170.667c-33.948 0-66.505 13.488-90.51 37.49-24.005 24.007-37.49 56.565-37.49 90.51zM853.333 149.333c0-33.946-13.488-66.503-37.49-90.51-24.007-24.001-56.565-37.49-90.51-37.49h-170.667v341.333h298.667v-213.333zM554.667 448v128h298.667c22.63 0 44.339-8.991 60.342-24.994s24.991-37.708 24.991-60.34v-42.667h-384z" />
<glyph unicode="&#xe930;" glyph-name="gift-fill" horiz-adv-x="964" d="M770.777 630.876l-22.245 0.32c28.1 37.937 43.171 83.949 42.966 131.16 0.217 14.975-5.53 29.423-15.962 40.164-10.439 10.742-24.715 16.897-39.689 17.113s-29.425-5.527-40.165-15.964c-10.746-10.437-16.896-24.713-17.113-39.688-1.175-81.686-70.283-111.678-125.225-122.71 27.735 42.92 44.938 91.785 50.208 142.614 0.434 29.951-11.053 58.846-31.927 80.329s-49.427 33.794-79.377 34.226c-29.951 0.431-58.846-11.054-80.33-31.927s-33.794-49.427-34.225-79.377c3.805-50.96 19.595-100.3 46.083-144-54.6 12.608-122.816 44.577-121.64 126.262 0.216 14.976-5.527 29.423-15.964 40.165s-24.713 16.897-39.688 17.112c-14.976 0.216-29.423-5.527-40.165-15.964s-16.897-24.713-17.112-39.688c-1.567-47.185 12.174-93.612 39.172-132.342l-22.247 0.32c-44.912 0.596-88.226-16.647-120.44-47.947s-50.696-74.1-51.392-119.010l-0.542-37.643c-0.308-21.688 6.885-42.818 20.362-59.814s32.41-28.814 53.598-33.458l-2.022-140.523c-0.704-53.073 19.674-104.261 56.663-142.33s87.569-59.916 140.643-60.735l352.492-5.072c53.073-0.705 104.261 19.673 142.33 56.663 38.069 36.984 59.91 87.564 60.735 140.637l2.024 140.523c21.311 4.036 40.574 15.306 54.537 31.904 13.963 16.601 21.757 37.515 22.076 59.203l0.542 37.643c0.596 44.911-16.649 88.226-47.947 120.44s-74.101 50.696-119.013 51.392zM824.808 460.669l-0.271-18.822-282.325 4.063 1.083 75.286 225.862-3.25c14.974-0.215 29.25-6.371 39.683-17.112 10.439-10.742 16.179-25.189 15.968-40.165zM147.229 470.42c0.216 14.976 6.371 29.252 17.113 39.688s25.189 16.179 40.165 15.964l225.859-3.25-1.084-75.286-282.323 4.063 0.27 18.822zM218.625 198.981l1.995 138.601 207.037-2.976-3.25-225.858-119.78 1.723c-23.133 0.361-45.177 9.885-61.299 26.473-16.122 16.595-25.005 38.906-24.702 62.036v0zM657.119 105.4l-119.783 1.723 3.25 225.858 207.036-2.982-1.994-138.601c-0.361-23.13-9.885-45.176-26.479-61.295-16.589-16.125-38.9-25.010-62.030-24.702z" />
<glyph unicode="&#xe931;" glyph-name="calendar" d="M762.904 849.569h-20.082v20.078c0 15.975-6.343 31.296-17.643 42.593-11.294 11.296-26.618 17.642-42.592 17.642v0c-15.974 0-31.292-6.346-42.592-17.642-11.294-11.296-17.643-26.617-17.643-42.593v-20.078h-240.939v20.078c0 15.975-6.346 31.296-17.642 42.593s-26.617 17.642-42.593 17.642v0c-15.976 0-31.296-6.346-42.593-17.642s-17.642-26.617-17.642-42.593v-20.078h-20.078c-58.576 0-114.754-23.269-156.174-64.69s-64.689-97.597-64.689-156.173v-441.723c0-58.579 23.269-114.754 64.689-156.178 41.42-41.418 97.597-64.687 156.174-64.687h522.041c58.573 0 114.754 23.269 156.172 64.687 41.418 41.424 64.687 97.599 64.687 156.178v441.723c0 58.576-23.269 114.754-64.687 156.173s-97.599 64.69-156.172 64.69v0zM762.904 86.588h-522.041c-26.626 0-52.161 10.577-70.988 29.407-18.827 18.824-29.404 44.357-29.404 70.987v341.331h722.822v-341.331c0-26.63-10.577-52.164-29.401-70.987-18.83-18.83-44.363-29.407-70.987-29.407z" />
<glyph unicode="&#xe932;" glyph-name="copy" d="M854.618 782.756c52.381 0 94.81-39.66 94.81-88.622v-620.358c0-48.965-42.43-88.618-94.81-88.618h-521.473c-52.385 0-94.814 39.659-94.814 88.618v620.358c0 48.965 42.43 88.622 94.814 88.622h521.473zM854.618 694.134h-521.473v-620.358h521.473v620.358zM712.397 960v-88.623h-568.877v-620.352h-94.814v620.352c0 48.965 42.428 88.623 94.814 88.623h568.877z" />
<glyph unicode="&#xe933;" glyph-name="eye-hide" d="M945.206 573.713c-31.238 45.473-68.421 86.558-110.568 122.155l113.718 113.678c22.962 24.312 21.871 62.636-2.446 85.598-23.359 22.066-59.886 22.039-83.215-0.059l-131.036-131.075c-71.337 35.645-150.079 53.93-229.818 53.368-179.304-1.717-345.802-93.219-443.365-243.665-51.303-75.452-51.303-174.588 0-250.039 31.235-45.478 68.422-86.558 110.569-122.157l-113.718-113.797c-23.655-23.654-23.655-62.006 0-85.661s62.007-23.654 85.661 0l131.035 131.072c71.333-35.641 150.077-53.929 229.818-53.362 179.305 1.711 345.801 93.214 443.364 243.658 51.411 75.509 51.411 174.779 0 250.286zM158.349 392.056c-23.247 34.091-23.247 78.94 0 113.030 74.438 118.096 203.897 190.151 343.493 191.185 47.043 0.229 93.748-7.976 137.899-24.221l-74.844-74.803c-82.088 34.848-176.885-3.449-211.731-85.538-17.118-40.322-17.118-85.871 0-126.193l-98.377-98.417c-37.113 30.075-69.605 65.439-96.441 104.957zM845.336 392.056c-74.439-118.094-203.902-190.154-343.494-191.184-47.044-0.229-93.748 7.975-137.899 24.221l74.843 74.842c82.088-34.846 176.885 3.451 211.731 85.538 17.119 40.322 17.119 85.871 0 126.193l98.376 98.377c37.111-30.077 69.602-65.44 96.437-104.958 23.251-34.089 23.251-78.938 0.006-113.029z" />
<glyph unicode="&#xe934;" glyph-name="eye-show" d="M945.14 573.116c-97.515 150.458-264.005 241.966-443.299 243.649-179.289-1.682-345.78-93.191-443.298-243.649-51.391-75.419-51.391-174.606 0-250.026 97.463-150.552 263.963-242.158 443.299-243.893 179.292 1.681 345.783 93.19 443.297 243.652 51.501 75.474 51.501 174.793 0 250.267zM845.354 391.469c-74.451-118.091-203.915-190.139-343.513-191.175-139.598 1.036-269.060 73.083-343.515 191.175-23.211 34.1-23.211 78.926 0 113.024 74.452 118.091 203.915 190.139 343.515 191.174 139.599-1.033 269.063-73.083 343.513-191.174 23.215-34.098 23.215-78.923 0-113.024zM501.933 286.515c89.174 0 161.462 72.289 161.462 161.463s-72.288 161.463-161.462 161.463c-89.174 0-161.463-72.29-161.463-161.463s72.29-161.463 161.463-161.463z" />
<glyph unicode="&#xe935;" glyph-name="filter" d="M702.556 486.688h-425.529c-32.047 0-58.027-25.98-58.027-58.026s25.98-58.030 58.027-58.030h425.529c32.046 0 58.025 25.984 58.025 58.030s-25.979 58.026-58.025 58.026zM83.626 641.421h812.374c32.046 0 58.025 25.98 58.025 58.027s-25.979 58.026-58.025 58.026h-812.374c-32.047 0-58.026-25.979-58.026-58.026s25.98-58.027 58.026-58.027zM586.45 215.895h-193.423c-32.047 0-58.026-25.979-58.026-58.030 0-32.046 25.979-58.025 58.026-58.025h193.423c32.046 0 58.025 25.979 58.025 58.025 0 32.051-25.979 58.030-58.025 58.030z" />
<glyph unicode="&#xe936;" glyph-name="headphone" d="M896 466.972v66.603c0 101.843-40.458 199.515-112.471 271.529s-169.687 112.471-271.529 112.471c-101.843 0-199.515-40.457-271.529-112.471s-112.471-169.686-112.471-271.529v-66.603c-38.246-18.461-70.53-47.306-93.164-83.244-22.634-35.932-34.705-77.507-34.836-119.977v-15.529c0.068-60.16 23.995-117.832 66.533-160.369 42.537-42.542 100.211-66.468 160.369-66.534h7.765c28.29 0 55.421 11.238 75.425 31.242s31.242 47.135 31.242 75.423v256c-0.005 24.581-8.501 48.41-24.050 67.45s-37.198 32.125-61.284 37.041v45.099c0 67.895 26.971 133.010 74.981 181.019s113.124 74.981 181.019 74.981c67.896 0 133.012-26.972 181.018-74.981 48.010-48.009 74.982-113.124 74.982-181.019v-45.099c-24.084-4.916-45.737-18.001-61.281-37.041-15.549-19.041-24.049-42.869-24.054-67.45v-256c0-28.288 11.238-55.419 31.242-75.423s47.135-31.242 75.428-31.242h7.762c60.16 0.067 117.832 23.992 160.369 66.534 42.537 42.537 66.468 100.209 66.534 160.369v15.529c-0.133 42.47-12.201 84.045-34.836 119.977-22.636 35.937-54.917 64.782-93.164 83.244zM213.334 150.257c-23.672 3.308-45.349 15.063-61.032 33.096-15.683 18.038-24.314 41.139-24.301 65.039v15.529c-0.013 23.9 8.618 47.002 24.301 65.039 15.684 18.033 37.361 29.788 61.032 33.096v-211.799zM896 248.392c0.015-23.9-8.617-47.002-24.3-65.039-15.688-18.033-37.361-29.788-61.036-33.096v211.456c23.675-3.302 45.348-15.058 61.036-33.096 15.683-18.038 24.315-41.134 24.3-65.034v-15.191z" />
<glyph unicode="&#xe937;" glyph-name="heart" d="M735.985 881.037c-43.766-0.423-86.82-11.090-125.716-31.148-38.902-20.057-72.561-48.945-98.285-84.351-25.725 35.406-59.385 64.294-98.284 84.351s-81.954 30.724-125.716 31.148c-79.284-3.166-154.090-37.597-208.059-95.763s-82.711-135.337-79.941-214.637c0-194.22 199.424-402.133 366.933-542.38 40.675-34.202 92.115-52.951 145.257-52.951 53.146 0 104.586 18.749 145.26 52.951 167.337 140.247 366.935 348.16 366.935 542.38 2.765 79.364-26.025 156.59-80.077 214.768s-128.957 92.566-208.307 95.632zM575.002 126.351c-17.644-14.858-39.972-23.004-63.039-23.004s-45.394 8.146-63.040 23.004c-203.947 171.008-320.939 332.926-320.939 444.286-2.72 45.346 12.556 89.934 42.512 124.084s72.174 55.106 117.488 58.316c45.314-3.21 87.532-24.166 117.488-58.316s45.233-78.738 42.512-124.084c0-16.974 6.743-33.252 18.745-45.255s28.281-18.745 45.255-18.745c16.974 0 33.251 6.743 45.257 18.745 12.001 12.002 18.744 28.281 18.744 45.255-2.724 45.346 12.554 89.934 42.511 124.084s72.172 55.106 117.489 58.316c45.312-3.21 87.532-24.166 117.489-58.316 29.952-34.15 45.23-78.738 42.511-124.084 0-111.36-116.992-273.278-320.983-444.286z" />
<glyph unicode="&#xe938;" glyph-name="heart-fill" d="M746.705 878.229c-48.043-0.748-95.040-14.159-136.243-38.881s-75.153-59.878-98.423-101.919c-23.266 42.041-57.216 77.197-98.42 101.919s-88.2 38.134-136.244 38.881c-76.589-3.328-148.749-36.832-200.713-93.194s-79.511-130.999-76.62-207.606c0-194.005 204.202-405.888 375.466-549.547 38.239-32.132 86.586-49.749 136.532-49.749 49.95 0 98.295 17.617 136.533 49.749 171.264 143.659 375.467 355.541 375.467 549.547 2.893 76.607-24.653 151.244-76.617 207.606-51.968 56.362-124.126 89.867-200.717 93.194z" />
<glyph unicode="&#xe939;" glyph-name="menu-horizon" d="M960 512h-896c-35.346 0-64-28.655-64-64s28.654-64 64-64h896c35.345 0 64 28.655 64 64s-28.655 64-64 64zM64 682.666h896c35.345 0 64 28.654 64 64s-28.655 64-64 64h-896c-35.346 0-64-28.654-64-64s28.654-64 64-64zM960 213.333h-896c-35.346 0-64-28.655-64-64s28.654-64 64-64h896c35.345 0 64 28.655 64 64s-28.655 64-64 64z" />
<glyph unicode="&#xe93a;" glyph-name="menu-vertical" d="M448 896v-896c0-35.345 28.655-64 64-64s64 28.655 64 64v896c0 35.346-28.655 64-64 64s-64-28.654-64-64zM277.334 0v896c0 35.346-28.654 64-64 64s-64-28.654-64-64v-896c0-35.345 28.654-64 64-64s64 28.655 64 64zM746.667 896v-896c0-35.345 28.655-64 64-64s64 28.655 64 64v896c0 35.346-28.655 64-64 64s-64-28.654-64-64z" />
<glyph unicode="&#xe93b;" glyph-name="search" d="M979.836 64.18l-188.757 188.835c141.239 188.743 102.727 456.241-86.011 597.477-188.743 141.236-456.241 102.725-597.477-86.015s-102.725-456.239 86.015-597.473c151.611-113.454 359.847-113.454 511.462 0l188.835-188.835c23.728-23.732 62.201-23.732 85.933 0 23.728 23.728 23.728 62.201 0 85.933v0.078zM450.91 203.449c-167.743 0-303.725 135.982-303.725 303.725s135.981 303.724 303.725 303.724c167.742 0 303.725-135.981 303.725-303.724-0.18-167.669-136.055-303.544-303.725-303.725z" />
<glyph unicode="&#xe93c;" glyph-name="question-mark" d="M512 960c-101.264 0-200.254-30.028-284.452-86.287s-149.822-136.223-188.574-229.779c-38.752-93.556-48.891-196.501-29.136-295.821s68.519-190.549 140.123-262.153c71.604-71.603 162.834-120.367 262.153-140.122s202.265-9.617 295.82 29.133c93.555 38.754 173.521 104.38 229.777 188.578 56.26 84.194 86.289 183.185 86.289 284.45-0.145 135.746-54.135 265.89-150.123 361.876s-226.133 149.977-361.877 150.124v0zM512 21.333c-84.386 0-166.878 25.024-237.043 71.906s-124.852 113.519-157.145 191.484c-32.294 77.961-40.743 163.75-24.28 246.515s57.099 158.79 116.77 218.461c59.67 59.67 135.695 100.306 218.46 116.769s168.555 8.014 246.515-24.279c77.965-32.294 144.602-86.981 191.484-157.146s71.906-152.657 71.906-237.043c-0.124-113.122-45.116-221.572-125.103-301.564-79.991-79.987-188.442-124.979-301.564-125.103zM542.592 743.996c-24.606 4.483-49.894 3.504-74.078-2.869s-46.673-17.982-65.873-34.008c-19.2-16.026-34.644-36.076-45.239-58.731s-16.080-47.361-16.069-72.371c0-11.316 4.495-22.168 12.497-30.17s18.854-12.497 30.17-12.497c11.316 0 22.168 4.495 30.17 12.497s12.497 18.854 12.497 30.17c-0.011 12.554 2.748 24.955 8.081 36.32s13.107 21.413 22.767 29.428c9.664 8.015 20.975 13.801 33.126 16.943 12.156 3.142 24.853 3.564 37.188 1.235 16.853-3.272 32.35-11.494 44.51-23.616s20.433-27.593 23.757-44.438c3.358-17.681 1.037-35.971-6.626-52.256s-20.275-29.729-36.041-38.412c-26.103-15.125-47.676-36.971-62.468-63.266-14.788-26.295-22.259-56.073-21.628-86.238v-31.701c0-11.315 4.497-22.17 12.497-30.17s18.854-12.497 30.17-12.497c11.315 0 22.17 4.497 30.17 12.497s12.497 18.854 12.497 30.17v31.701c-0.538 14.848 2.85 29.577 9.818 42.697 6.963 13.124 17.263 24.179 29.862 32.055 30.912 16.977 55.804 43.119 71.258 74.82 15.45 31.706 20.698 67.415 15.027 102.225-5.675 34.809-21.995 67.005-46.711 92.161-24.721 25.156-56.623 42.036-91.328 48.32zM554.667 192.009c0 23.565-19.102 42.667-42.667 42.667s-42.667-19.102-42.667-42.667c0-23.561 19.102-42.667 42.667-42.667s42.667 19.106 42.667 42.667z" />
<glyph unicode="&#xe93d;" glyph-name="question-mark-fill" d="M512 960c-101.264 0-200.254-30.028-284.452-86.287s-149.822-136.223-188.574-229.779c-38.752-93.556-48.891-196.501-29.136-295.821s68.519-190.549 140.123-262.153c71.604-71.603 162.834-120.367 262.153-140.122s202.265-9.617 295.82 29.133c93.555 38.754 173.521 104.38 229.777 188.578 56.26 84.194 86.289 183.185 86.289 284.45-0.145 135.746-54.135 265.89-150.123 361.876s-226.133 149.977-361.877 150.124v0zM512 106.667c-8.439 0-16.687 2.5-23.706 7.189-7.014 4.689-12.484 11.354-15.714 19.149s-4.075 16.375-2.428 24.653c1.647 8.277 5.709 15.881 11.678 21.845 5.969 5.969 13.568 10.031 21.845 11.678s16.858 0.802 24.653-2.428c7.795-3.23 14.46-8.7 19.149-15.714 4.689-7.019 7.189-15.266 7.189-23.706 0-11.315-4.497-22.17-12.497-30.17s-18.854-12.497-30.17-12.497zM594.347 426.411c-12.591-7.872-22.886-18.923-29.854-32.038-6.963-13.111-10.355-27.831-9.826-42.671v-31.701c0-11.315-4.497-22.17-12.497-30.17s-18.854-12.497-30.17-12.497c-11.315 0-22.17 4.497-30.17 12.497s-12.497 18.854-12.497 30.17v31.701c-0.631 30.106 6.81 59.827 21.542 86.089 14.737 26.261 36.233 48.098 62.255 63.245 15.765 8.683 28.382 22.127 36.045 38.411s9.98 34.575 6.622 52.256c-3.324 16.845-11.597 32.316-23.753 44.438-12.16 12.122-27.661 20.343-44.514 23.616-12.301 2.277-24.951 1.821-37.056-1.334s-23.364-8.933-32.99-16.924c-9.621-7.991-17.37-18-22.699-29.318-5.325-11.319-8.098-23.67-8.119-36.178 0-11.316-4.495-22.168-12.497-30.17s-18.854-12.497-30.17-12.497c-11.316 0-22.168 4.495-30.17 12.497s-12.497 18.854-12.497 30.17c0.011 30.101 7.982 59.664 23.106 85.69s36.862 47.588 63.012 62.501c26.146 14.912 55.774 22.644 85.871 22.411 30.101-0.233 59.605-8.424 85.517-23.74 25.916-15.316 47.313-37.213 62.033-63.471s22.229-55.94 21.773-86.038c-0.452-30.097-8.862-59.539-24.371-85.34-15.505-25.796-37.564-47.036-63.927-61.559v-0.043z" />
<glyph unicode="&#xe93e;" glyph-name="exclamation-circle" d="M512 960c-282.77 0-512-229.23-512-512 0-282.772 229.23-512 512-512 282.772 0 512 229.228 512 512-0.307 282.644-229.356 511.694-512 512zM512 64c-212.078 0-384 171.924-384 384 0 212.078 171.922 384 384 384 212.076 0 384-171.922 384-384-0.236-211.978-172.022-383.764-384-384zM512 316.114c35.348 0 64 28.657 64 64v298.668c0 35.346-28.652 64-64 64-35.346 0-64-28.654-64-64v-298.668c0-35.343 28.654-64 64-64zM512.2 149.33c35.348 0 64 28.657 64 64 0 35.348-28.652 64-64 64-35.346 0-63.999-28.652-63.999-64 0-35.343 28.654-64 63.999-64z" />
<glyph unicode="&#xe93f;" glyph-name="tick" d="M330.632 78.399c-29.067-0.011-56.944 11.543-77.48 32.114l-234.248 234.16c-25.205 25.213-25.205 66.086 0 91.299 25.213 25.205 66.084 25.205 91.297 0l220.431-220.431 583.169 583.166c25.213 25.206 66.082 25.206 91.295 0 25.207-25.213 25.207-66.084 0-91.297l-596.983-596.898c-20.536-20.571-48.413-32.125-77.48-32.114z" />
<glyph unicode="&#xe940;" glyph-name="tick-circle" d="M227.548 873.713c84.198 56.259 183.188 86.287 284.452 86.287 135.747-0.147 265.892-54.137 361.876-150.124s149.975-226.13 150.124-361.876c0-101.263-30.029-200.253-86.287-284.452s-136.223-149.821-229.78-188.575c-93.553-38.753-196.5-48.891-295.818-29.133-99.318 19.753-190.548 68.516-262.152 140.119-71.605 71.608-120.368 162.836-140.124 262.154s-9.616 202.265 29.136 295.82c38.752 93.556 104.376 173.519 188.574 229.778zM298.661 128.717c63.148-42.194 137.391-64.717 213.339-64.717 101.806 0.113 199.414 40.607 271.406 112.594 71.987 71.992 112.481 169.6 112.594 271.406 0 75.948-22.523 150.191-64.717 213.339s-102.164 112.367-172.334 141.431c-70.164 29.064-147.375 36.668-221.863 21.852s-142.911-51.389-196.615-105.093c-53.703-53.703-90.276-122.125-105.093-196.614s-7.212-151.699 21.852-221.864c29.064-70.17 78.282-130.14 141.431-172.334zM411.017 263.332c12.966-5.361 26.863-8.105 40.893-8.090 13.939-0.051 27.75 2.657 40.638 7.962 12.888 5.309 24.598 13.117 34.454 22.973l247.296 243.542c6.139 5.864 11.054 12.891 14.449 20.672 3.4 7.781 5.212 16.16 5.34 24.649s-1.434 16.919-4.598 24.798c-3.159 7.879-7.859 15.050-13.819 21.096-5.965 6.046-13.066 10.845-20.9 14.118s-16.241 4.955-24.73 4.948c-8.489-0.007-16.896-1.704-24.724-4.99s-14.925-8.099-20.874-14.155l-232.532-229.078-104.79 101.419c-12.216 11.66-28.547 18.019-45.431 17.691s-32.955-7.316-44.71-19.443c-11.754-12.126-18.239-28.406-18.042-45.293s7.061-33.014 19.096-44.861l118.315-114.816c9.922-9.917 21.704-17.782 34.67-23.142z" />
<glyph unicode="&#xe941;" glyph-name="x-mark" d="M667.159 448.013l283.72 284.014c18.425 20.936 28.182 48.102 27.29 75.974s-12.361 54.36-32.080 74.078c-19.719 19.719-46.204 31.189-74.079 32.079-27.867 0.89-55.033-8.867-75.973-27.288l-284.012-283.721-284.526 284.599c-10.191 10.191-22.29 18.275-35.605 23.791s-27.587 8.354-41.999 8.354c-14.412 0-28.684-2.839-41.999-8.354s-25.414-13.6-35.605-23.791c-10.191-10.191-18.275-22.29-23.791-35.605s-8.354-27.587-8.354-41.999c0-14.413 2.839-28.684 8.354-41.999s13.599-25.414 23.791-35.605l284.599-284.526-283.721-283.939c-11.127-9.947-20.108-22.060-26.393-35.599s-9.742-28.211-10.159-43.132c-0.417-14.914 2.213-29.762 7.731-43.63s13.807-26.463 24.361-37.018c10.553-10.555 23.149-18.842 37.016-24.364 13.867-5.515 28.714-8.148 43.633-7.731 14.919 0.424 29.596 3.877 43.132 10.16 13.537 6.29 25.649 15.272 35.596 26.397l283.941 283.72 283.647-283.72c20.582-20.582 48.501-32.146 77.605-32.146 29.111 0 57.022 11.564 77.605 32.146s32.146 48.494 32.146 77.605c0 29.104-11.564 57.022-32.146 77.605l-283.72 283.647z" />
<glyph unicode="&#xe942;" glyph-name="x-mark-fill" d="M512-64c282.769 0 512 229.231 512 512s-229.231 512-512 512c-282.77 0-512-229.23-512-512s229.23-512 512-512zM763.699 699.709c13.329-13.33 13.329-34.942 0-48.272l-203.43-203.429 203.409-203.413c13.333-13.329 13.333-34.94 0-48.269-13.329-13.333-34.94-13.333-48.269 0l-203.413 203.409-203.409-203.409c-13.33-13.329-34.942-13.329-48.272 0s-13.33 34.94 0 48.273l203.408 203.409-203.426 203.427c-13.33 13.33-13.33 34.942 0 48.272s34.942 13.33 48.272 0l203.427-203.43 203.43 203.432c13.329 13.33 34.944 13.33 48.273 0z" />
<glyph unicode="&#xe943;" glyph-name="tools" d="M413.522 585.86l-137.841 137.84-39.383 118.149-157.532 78.766-78.766-78.766 78.766-157.532 118.149-39.382 137.841-137.841 78.766 78.766zM740.283 636.94l126.061-31.506 145.959 145.953c26.703-83.807 6.971-179.192-59.55-245.71-64.583-64.608-142.423-71.178-215.473-38.88l-456.795-456.793c-46.156-46.159-120.945-46.159-167.102 0s-46.157 120.942 0 167.101l456.766 456.765c-32.336 73.073-25.772 150.939 38.829 215.541 66.518 66.478 161.904 86.209 245.754 59.547l-145.957-145.953 31.507-126.065zM771.001 6.144l-189.787 189.786 148.237 148.277 189.785-189.787c40.96-40.961 40.96-107.316 0-148.276-40.921-40.96-107.276-40.96-148.236 0zM157.532 93.57c0-21.732 17.644-39.377 39.383-39.377s39.383 17.644 39.383 39.377c0 21.74-17.644 39.386-39.383 39.386s-39.383-17.646-39.383-39.386z" />
<glyph unicode="&#xe944;" glyph-name="rocket" d="M640 639.969c0 12.658 3.755 25.032 10.786 35.556s17.028 18.728 28.723 23.572c11.695 4.844 24.563 6.111 36.975 3.642 12.416-2.469 23.821-8.565 32.772-17.515 8.947-8.951 15.044-20.355 17.515-32.769s1.203-25.283-3.644-36.977c-4.843-11.695-13.047-21.69-23.569-28.722-10.526-7.032-22.899-10.786-35.558-10.786-16.973 0-33.254 6.743-45.257 18.745s-18.743 28.281-18.743 45.255zM576 447.97c12.659 0 25.033 3.75 35.558 10.786 10.522 7.031 18.726 17.028 23.569 28.723 4.847 11.691 6.114 24.559 3.644 36.975s-8.567 23.819-17.515 32.77c-8.951 8.951-20.356 15.046-32.772 17.515-12.412 2.47-25.28 1.202-36.975-3.642s-21.692-13.047-28.723-23.572c-7.031-10.525-10.786-22.9-10.786-35.555 0-16.973 6.741-33.254 18.743-45.257s28.284-18.743 45.257-18.743zM448 319.97c12.659 0 25.033 3.75 35.558 10.786 10.522 7.031 18.726 17.028 23.569 28.723 4.847 11.691 6.114 24.559 3.644 36.975s-8.567 23.821-17.515 32.768c-8.951 8.951-20.356 15.049-32.772 17.519-12.412 2.466-25.28 1.199-36.976-3.644-11.695-4.843-21.69-13.047-28.722-23.573-7.033-10.522-10.786-22.899-10.786-35.554 0-16.973 6.743-33.254 18.745-45.257s28.282-18.743 45.255-18.743zM1017.216 808.375l-3.2-8.917c-70.571-195.797-137.984-380.799-293.333-541.482-11.541-110.046-61.376-212.54-140.8-289.579-21.764-20.719-50.633-32.32-80.683-32.427-30.554 0-59.853 12.134-81.459 33.741-21.604 21.602-33.741 50.906-33.741 81.459v69.589c-25.062 9.195-48.281 22.793-68.565 40.149l-78.165-78.208c-12.006-12.006-28.29-18.752-45.269-18.752s-33.263 6.746-45.269 18.752c-12.006 12.006-18.751 28.288-18.751 45.269 0 16.977 6.745 33.263 18.751 45.269l78.251 78.251c-26.145 31.881-43.043 70.327-48.853 111.147h-60.928c-30.553 0-59.855 12.134-81.459 33.741-21.604 21.602-33.741 50.906-33.741 81.459 0.118 30.033 11.72 58.884 32.427 80.639 44.427 45.391 97.392 81.545 155.848 106.384s121.248 37.868 184.76 38.342c148.309 123.435 315.136 183.467 490.667 246.784l8.875 3.2c20.207 7.281 42.065 8.661 63.027 3.979s40.154-15.233 55.343-30.42c15.185-15.187 25.737-34.382 30.421-55.343 4.681-20.96 3.298-42.821-3.981-63.026h-0.171zM886.101 822.071c-185.856-67.115-347.008-128.341-485.035-266.24-29.379-33.168-56.748-68.057-81.963-104.49-13.431-19.098-19.68-42.33-17.643-65.587s12.231-45.047 28.779-61.517l60.757-60.587c16.479-16.495 38.251-26.645 61.483-28.659 23.228-2.014 46.421 4.237 65.493 17.651 36.386 25.067 70.481 53.312 101.888 84.395 137.899 138.027 199.339 299.178 266.24 485.034z" />
<glyph unicode="&#xe945;" glyph-name="cards" d="M860.587 874.678l-224.853 74.965c-59.319 17.935-123.315 11.783-178.129-17.126s-96.035-78.246-114.735-137.328l-1.536-5.845h-106.667c-62.217-0.068-121.866-24.813-165.859-68.807s-68.739-103.643-68.807-165.86v-383.999c0.068-62.217 24.813-121.869 68.807-165.862s103.643-68.736 165.859-68.804h213.333c34.91 0.009 69.376 7.817 100.881 22.852 31.509 15.040 59.255 36.924 81.22 64.060 54.95-7.258 110.686 5.329 157.18 35.494 46.498 30.165 80.708 75.934 96.474 129.071l131.712 397.055c17.212 59.008 10.641 122.409-18.308 176.634-28.945 54.225-77.965 94.964-136.572 113.5v0zM554.667 170.679c0-28.292-11.238-55.424-31.241-75.426-20.006-20.002-47.138-31.241-75.426-31.241h-213.333c-28.29 0-55.421 11.238-75.425 31.241s-31.242 47.134-31.242 75.426v383.999c0 28.29 11.238 55.421 31.242 75.425s47.135 31.242 75.425 31.242h213.333c28.288 0 55.42-11.238 75.426-31.242 20.002-20.004 31.241-47.135 31.241-75.425v-383.999zM893.269 622.945l-131.669-397.268c-5.41-18.381-15.693-34.957-29.751-47.97-14.063-13.018-31.377-21.99-50.121-25.971 0.469 6.272 0.939 12.544 0.939 18.944v383.999c-0.064 56.574-20.565 111.221-57.724 153.878-37.163 42.657-88.486 70.454-144.516 78.271 12.693 18.113 30.741 31.798 51.61 39.136 20.864 7.338 43.503 7.961 64.742 1.781l224.768-74.965c26.462-8.107 48.738-26.183 62.123-50.41s16.828-52.707 9.6-79.424v0zM512 405.346c0-61.867-65.877-144.683-115.797-186.795-15.338-12.979-34.778-20.1-54.869-20.1s-39.532 7.121-54.869 20.1c-49.92 42.112-115.797 124.928-115.797 186.795 0 22.63 8.99 44.335 24.994 60.339s37.708 24.994 60.34 24.994c22.632 0 44.337-8.99 60.34-24.994s24.994-37.709 24.994-60.339c0 22.63 8.991 44.335 24.994 60.339s37.708 24.994 60.34 24.994c22.63 0 44.335-8.99 60.339-24.994s24.994-37.709 24.994-60.339v0z" />
<glyph unicode="&#xe946;" glyph-name="lottery" d="M512 960c-101.264 0-200.254-30.028-284.452-86.287s-149.822-136.223-188.574-229.779c-38.752-93.556-48.891-196.501-29.136-295.821s68.519-190.549 140.123-262.153c71.604-71.603 162.834-120.367 262.153-140.122s202.265-9.617 295.82 29.133c93.555 38.754 173.521 104.38 229.777 188.578 56.26 84.194 86.289 183.185 86.289 284.45-0.145 135.746-54.135 265.89-150.123 361.876s-226.133 149.977-361.877 150.124v0zM512 64c-75.947 0-150.19 22.519-213.339 64.717-63.148 42.193-112.367 102.165-141.431 172.331-29.064 70.17-36.669 147.379-21.852 221.867 14.816 74.489 51.389 142.912 105.092 196.615s122.126 90.276 196.615 105.093c74.487 14.816 151.697 7.212 221.867-21.852 70.165-29.064 130.138-78.283 172.331-141.431 42.197-63.148 64.717-137.392 64.717-213.339-0.111-101.807-40.606-199.415-112.597-271.403-71.987-71.991-169.596-112.486-271.403-112.597v0zM511.966 184.149c-41.412 0-77.594 5.687-108.543 17.067-30.493 11.831-54.158 29.124-70.997 51.883-16.839 22.754-25.259 50.743-25.259 83.968 0 21.389 3.186 40.047 9.557 55.979 6.827 16.384 16.157 30.263 27.989 41.643 12.288 11.375 26.851 20.023 43.691 25.941v9.557c-12.743 5.461-24.349 12.74-34.816 21.845-10.013 9.101-17.977 20.48-23.893 34.133-5.461 13.651-8.192 29.808-8.192 48.467 0 31.403 8.192 57.117 24.576 77.141 16.384 20.48 38.912 35.726 67.584 45.739 29.128 10.013 61.896 15.019 98.303 15.019 36.864 0 69.632-5.006 98.304-15.019s51.2-25.259 67.584-45.739c16.384-20.025 24.576-45.739 24.576-77.141 0-18.659-2.957-34.816-8.875-48.467-5.461-13.653-13.197-25.033-23.211-34.133-10.010-9.105-21.615-16.384-34.816-21.845v-9.557c16.841-5.918 31.403-14.566 43.691-25.941 12.288-11.379 21.619-25.259 27.989-41.643 6.827-15.932 10.24-34.59 10.24-55.979 0-33.225-8.418-61.214-25.259-83.968-16.836-22.758-40.73-40.051-71.68-51.883-30.49-11.379-66.671-17.067-108.544-17.067zM511.966 287.915c16.384 0 30.72 2.274 43.008 6.827 12.288 5.005 21.845 12.288 28.672 21.845 7.283 10.010 10.923 22.298 10.923 36.864 0 14.562-3.413 26.624-10.24 36.181s-16.61 16.61-29.355 21.163c-12.288 5.005-26.624 7.509-43.008 7.509-15.927 0-30.263-2.505-43.008-7.509-12.288-4.553-21.845-11.605-28.672-21.163s-10.24-21.619-10.24-36.181c0-14.566 3.413-26.854 10.24-36.864 6.827-9.557 16.384-16.841 28.672-21.845 12.745-4.553 27.081-6.827 43.008-6.827zM511.966 511.147c21.393 0 38.003 4.322 49.835 12.971 11.836 8.644 17.749 20.705 17.749 36.179 0 15.929-5.914 27.989-17.749 36.181-11.831 8.192-28.442 12.288-49.835 12.288-21.389 0-37.999-4.323-49.835-12.971-11.831-8.192-17.749-20.025-17.749-35.499s5.918-27.535 17.749-36.179c12.288-8.649 28.902-12.971 49.835-12.971z" />
<glyph unicode="&#xe947;" glyph-name="diamond" d="M987.567 716.8l-122.368 165.248c-17.254 24.087-39.991 43.721-66.338 57.276s-55.543 20.643-85.171 20.676h-403.541c-29.397 0.029-58.381-6.918-84.571-20.269s-48.839-32.725-66.085-56.531l-125.44-167.296c-23.2-32.579-35.245-71.785-34.338-111.77s14.718-78.605 39.372-110.097l358.869-502.997c13.584-17.207 30.899-31.108 50.645-40.64 19.742-9.536 41.391-14.46 63.317-14.4 22.434 0.060 44.557 5.286 64.644 15.275 20.092 9.988 37.606 24.474 51.196 42.325l354.133 495.317c26.052 31.991 40.747 71.727 41.775 112.972s-11.669 81.663-36.1 114.911v0zM137.604 640.555l125.184 167.083c5.393 7.529 12.501 13.666 20.737 17.903s17.361 6.451 26.623 6.46h102.016l-63.147-221.099 3.627-13.568h318.549l3.627 13.568-63.147 221.099h102.016c9.438-0.058 18.726-2.382 27.081-6.778 8.35-4.396 15.526-10.734 20.919-18.481l122.837-165.973c4.433-6.223 7.552-13.283 9.165-20.751s1.69-15.186 0.222-22.684h-222.72l-137.387-515.2-8.235-11.563c-1.617-2.074-3.691-3.746-6.059-4.885s-4.966-1.715-7.595-1.685c-4.267-0.213-8.452 1.22-11.691 4.011l-10.283 14.379-137.301 514.944h-222.976c-1.676 7.366-1.837 14.996-0.473 22.426s4.225 14.505 8.409 20.795v0z" />
<glyph unicode="&#xe948;" glyph-name="chip" d="M512 960c-101.264 0-200.254-30.028-284.452-86.287s-149.822-136.223-188.574-229.779c-38.752-93.556-48.891-196.501-29.136-295.821s68.519-190.549 140.123-262.153c71.604-71.603 162.834-120.367 262.153-140.122s202.265-9.617 295.82 29.133c93.555 38.754 173.521 104.38 229.777 188.578 56.26 84.194 86.289 183.185 86.289 284.45-0.145 135.746-54.135 265.89-150.123 361.876s-226.133 149.977-361.877 150.124v0zM879.659 558.293l-122.496-36.736c-12.198 40.555-34.257 77.455-64.205 107.401-29.943 29.946-66.846 52.005-107.401 64.204l36.736 122.496c60.791-18.357 116.1-51.461 161.003-96.364s78.007-100.211 96.363-161.002v0zM543.488 293.077c-3.665-4.894-8.418-8.862-13.884-11.597-5.466-2.739-11.49-4.16-17.604-4.16-6.11 0-12.139 1.421-17.604 4.16-5.466 2.735-10.219 6.703-13.884 11.597l-80.768 107.648c-10.22 13.641-15.744 30.229-15.744 47.275s5.524 33.634 15.744 47.275l80.768 107.648c3.665 4.892 8.418 8.864 13.884 11.599s11.494 4.159 17.604 4.159c6.114 0 12.139-1.424 17.604-4.159s10.219-6.707 13.884-11.599l80.768-107.648c10.219-13.641 15.744-30.229 15.744-47.275s-5.525-33.634-15.744-47.275l-80.768-107.648zM401.707 815.659l36.736-122.496c-40.555-12.199-77.455-34.258-107.401-64.204s-52.005-66.846-64.204-107.401l-122.496 36.736c18.371 60.783 51.479 116.085 96.38 160.986s100.202 78.009 160.986 96.38v0zM144.342 337.792l122.496 36.736c12.206-40.55 34.267-77.449 64.212-107.392 29.945-29.948 66.842-52.006 107.393-64.213l-36.736-122.496c-60.774 18.364-116.069 51.46-160.969 96.341-44.9 44.885-78.013 100.173-96.396 160.939v0.085zM622.208 80.427l-36.736 122.496c40.55 12.207 77.449 34.266 107.392 64.213 29.948 29.943 52.006 66.842 64.213 107.392l122.496-36.736c-18.338-60.796-51.422-116.117-96.311-161.033-44.885-44.919-100.186-78.042-160.969-96.418l-0.085 0.085z" />
<glyph unicode="&#xe949;" glyph-name="pc" d="M789.333 874.636h-554.667c-62.217-0.068-121.866-24.813-165.859-68.807s-68.739-103.643-68.807-165.859v-255.999c0.068-62.217 24.813-121.869 68.807-165.862s103.643-68.736 165.859-68.804h213.333v-85.333h-106.667c-16.974 0-33.253-6.746-45.255-18.748s-18.745-28.279-18.745-45.252c0-16.977 6.743-33.254 18.745-45.257s28.281-18.743 45.255-18.743h341.333c16.973 0 33.254 6.741 45.257 18.743s18.743 28.279 18.743 45.257c0 16.973-6.741 33.25-18.743 45.252s-28.284 18.748-45.257 18.748h-106.667v85.333h213.333c62.217 0.068 121.865 24.811 165.858 68.804s68.74 103.646 68.809 165.862v255.999c-0.068 62.217-24.815 121.865-68.809 165.859s-103.642 68.739-165.858 68.807v0zM896 383.97c0-28.292-11.238-55.424-31.241-75.426-20.006-20.002-47.138-31.241-75.426-31.241h-554.667c-28.29 0-55.421 11.238-75.425 31.241s-31.242 47.134-31.242 75.426v255.999c0 28.29 11.238 55.421 31.242 75.424s47.135 31.242 75.425 31.242h554.667c28.288 0 55.42-11.238 75.426-31.242 20.002-20.004 31.241-47.135 31.241-75.424v-255.999z" />
<glyph unicode="&#xe94a;" glyph-name="football" d="M512 960c-101.264 0-200.254-30.028-284.452-86.287s-149.822-136.223-188.574-229.779c-38.752-93.556-48.891-196.501-29.136-295.821s68.519-190.549 140.123-262.153c71.604-71.603 162.834-120.367 262.153-140.122s202.265-9.617 295.82 29.133c93.555 38.754 173.521 104.38 229.777 188.578 56.26 84.194 86.289 183.185 86.289 284.45-0.145 135.746-54.135 265.89-150.123 361.876s-226.133 149.977-361.877 150.124v0zM454.059 68.864l-66.816 208.469-218.837 0.299c-17.599 35.298-29.576 73.131-35.499 112.128l177.195 124.885-64.64 209.067c26.948 26.048 57.531 48.051 90.795 65.323l175.744-127.701 175.744 127.701c33.254-17.232 63.838-39.191 90.795-65.195l-64.64-209.067 177.195-124.885c-5.931-39.010-17.907-76.855-35.499-112.171l-218.837-0.384-66.816-208.469c-19.162-3.093-38.532-4.719-57.941-4.864-19.409 0.145-38.78 1.771-57.941 4.864v0zM636.757 277.333h-249.514l-77.141 237.312 201.898 146.688 201.899-146.688-77.141-237.312z" />
<glyph unicode="&#xe94b;" glyph-name="gamepad" d="M755.2 832h-486.4c-81.067 0-153.6-42.667-196.267-115.2-46.933-81.067-72.533-174.933-72.533-268.8 0-209.067 85.333-426.667 226.133-426.667 76.8 0 140.8 59.733 170.667 157.867 4.267 8.533 8.533 12.8 17.067 12.8h196.267c8.533 0 17.067-4.267 17.067-12.8 42.667-136.533 123.733-157.867 166.4-157.867 145.067 0 230.4 217.6 230.4 426.667 0 93.867-25.6 187.733-72.533 273.067-38.4 68.267-115.2 110.933-196.267 110.933zM797.867 149.333c-12.8 0-29.867 21.333-42.667 68.267-21.333 59.733-76.8 102.4-140.8 102.4h-200.533c-64 0-119.467-42.667-140.8-102.4-12.8-42.667-34.133-68.267-46.933-68.267-25.6 4.267-98.133 110.933-98.133 298.667 0 72.533 21.333 145.067 55.467 209.067 17.067 29.867 51.2 46.933 85.333 46.933h486.4c34.133 0 68.267-17.067 85.333-46.933 38.4-64 55.467-136.533 55.467-209.067 0-187.733-72.533-294.4-98.133-298.667zM448 575.99h-21.333v21.333c0 34.133-29.867 64-64 64s-64-29.867-64-64v-21.333h-21.333c-34.133 0-64-29.867-64-63.998 0-34.133 29.867-64 64-64h21.333v-21.333c0-34.133 29.867-64 64-64s64 29.867 64 64v21.333h21.333c34.133 0 64 29.867 64 64s-29.867 63.998-64 63.998zM725.333 448.013c47.13 0 85.333 38.204 85.333 85.331s-38.204 85.333-85.333 85.333c-47.13 0-85.333-38.205-85.333-85.333s38.204-85.331 85.333-85.331z" />
<glyph unicode="&#xe94c;" glyph-name="dice" d="M789.333-64h-554.667c-62.217 0.068-121.866 24.815-165.859 68.809s-68.739 103.642-68.807 165.858v554.667c0.068 62.217 24.813 121.866 68.807 165.859s103.643 68.739 165.859 68.807h554.667c62.217-0.068 121.865-24.813 165.858-68.807s68.74-103.643 68.809-165.859v-554.667c-0.068-62.217-24.815-121.865-68.809-165.858s-103.642-68.74-165.858-68.809zM234.667 832c-28.29 0-55.421-11.238-75.425-31.242s-31.242-47.135-31.242-75.425v-554.667c0-28.288 11.238-55.42 31.242-75.426 20.004-20.002 47.135-31.241 75.425-31.241h554.667c28.288 0 55.42 11.238 75.426 31.241 20.002 20.006 31.241 47.138 31.241 75.426v554.667c0 28.29-11.238 55.421-31.241 75.425-20.006 20.004-47.138 31.242-75.426 31.242h-554.667zM448 448c0-12.659 3.755-25.033 10.786-35.558 7.031-10.522 17.028-18.726 28.723-23.569 11.695-4.847 24.563-6.114 36.975-3.644 12.416 2.47 23.821 8.567 32.772 17.515 8.947 8.951 15.044 20.356 17.515 32.772 2.47 12.412 1.203 25.28-3.644 36.975-4.843 11.695-13.047 21.692-23.569 28.723-10.526 7.031-22.899 10.786-35.558 10.786-16.973 0-33.254-6.741-45.257-18.743s-18.743-28.284-18.743-45.257v0zM256 640c0-12.658 3.753-25.032 10.786-35.556s17.028-18.728 28.722-23.572c11.695-4.844 24.563-6.112 36.978-3.642s23.818 8.565 32.769 17.516c8.951 8.951 15.046 20.354 17.516 32.769s1.202 25.283-3.642 36.978c-4.844 11.694-13.047 21.69-23.572 28.722s-22.898 10.786-35.556 10.786c-16.974 0-33.253-6.743-45.255-18.745s-18.745-28.281-18.745-45.255zM640 640c0-12.658 3.755-25.032 10.786-35.556s17.028-18.728 28.723-23.572c11.695-4.844 24.563-6.112 36.975-3.642 12.416 2.47 23.821 8.565 32.772 17.516 8.947 8.951 15.044 20.354 17.515 32.769s1.199 25.283-3.644 36.978c-4.843 11.694-13.047 21.69-23.569 28.722-10.526 7.033-22.899 10.786-35.558 10.786-16.973 0-33.254-6.743-45.257-18.745s-18.743-28.281-18.743-45.255v0zM256 256c0-12.659 3.753-25.033 10.786-35.558 7.032-10.522 17.028-18.726 28.722-23.569s24.563-6.114 36.978-3.644c12.415 2.47 23.818 8.567 32.769 17.515 8.951 8.951 15.046 20.356 17.516 32.772 2.47 12.412 1.202 25.28-3.642 36.975s-13.047 21.692-23.572 28.723c-10.525 7.031-22.898 10.786-35.556 10.786-16.974 0-33.253-6.741-45.255-18.743s-18.745-28.284-18.745-45.257zM640 256c0-12.659 3.755-25.033 10.786-35.558 7.031-10.522 17.028-18.726 28.723-23.569s24.563-6.114 36.975-3.644c12.416 2.47 23.821 8.567 32.772 17.515 8.947 8.951 15.044 20.356 17.515 32.772 2.47 12.412 1.199 25.28-3.644 36.975s-13.047 21.692-23.569 28.723c-10.526 7.031-22.899 10.786-35.558 10.786-16.973 0-33.254-6.741-45.257-18.743s-18.743-28.284-18.743-45.257v0z" />
<glyph unicode="&#xe94d;" glyph-name="application" d="M85.334 213.333h106.666c47.128 0 85.334-38.208 85.334-85.333v-106.667c0-47.13-38.206-85.333-85.334-85.333h-106.666c-47.128 0-85.334 38.204-85.334 85.333v106.667c0 47.125 38.206 85.333 85.334 85.333zM832 213.333h106.667c47.13 0 85.333-38.208 85.333-85.333v-106.667c0-47.13-38.204-85.333-85.333-85.333h-106.667c-47.125 0-85.333 38.204-85.333 85.333v106.667c0 47.125 38.208 85.333 85.333 85.333zM85.334 586.667h106.666c47.128 0 85.334-38.206 85.334-85.333v-106.667c0-47.13-38.206-85.333-85.334-85.333h-106.666c-47.128 0-85.334 38.204-85.334 85.333v106.667c0 47.129 38.206 85.333 85.334 85.333zM832 586.667h106.667c47.13 0 85.333-38.206 85.333-85.333v-106.667c0-47.13-38.204-85.333-85.333-85.333h-106.667c-47.125 0-85.333 38.204-85.333 85.333v106.667c0 47.129 38.208 85.333 85.333 85.333zM85.334 960h106.666c47.128 0 85.334-38.206 85.334-85.334v-106.666c0-47.128-38.206-85.334-85.334-85.334h-106.666c-47.128 0-85.334 38.206-85.334 85.334v106.666c0 47.128 38.206 85.334 85.334 85.334zM458.667 213.333h106.667c47.13 0 85.333-38.208 85.333-85.333v-106.667c0-47.13-38.204-85.333-85.333-85.333h-106.667c-47.127 0-85.333 38.204-85.333 85.333v106.667c0.002 47.125 38.206 85.333 85.333 85.333zM458.667 586.667h106.667c47.13 0 85.333-38.206 85.333-85.333v-106.667c0-47.13-38.204-85.333-85.333-85.333h-106.667c-47.127 0-85.333 38.204-85.333 85.333v106.667c0.002 47.129 38.206 85.333 85.333 85.333zM458.667 960h106.667c47.13 0 85.333-38.206 85.333-85.334v-106.666c0-47.128-38.204-85.334-85.333-85.334h-106.667c-47.127 0-85.333 38.206-85.333 85.334v106.666c0.002 47.128 38.206 85.334 85.333 85.334zM832 960h106.667c47.13 0 85.333-38.206 85.333-85.334v-106.666c0-47.128-38.204-85.334-85.333-85.334h-106.667c-47.125 0-85.333 38.206-85.333 85.334v106.666c0 47.128 38.208 85.334 85.333 85.334z" />
</font>
</defs>
</svg>
